找回密码

蓝光电影网

查看: 576|回复: 2

[剧情] 伦敦父女档/闪亮的明天 Two.Is.a.Family.2016.FRENCH.1080p.BluRay.REMUX.AVC.TrueHD.5.1-FGT 20.17GB

[复制链接]
蓝光币
623
发表于 2018-9-9 23:22:24 | 显示全部楼层 |阅读模式

伦敦父女档/闪亮的明天 Two.Is.a.Family.2016.FRENCH.1080p.BluRay.REMUX.AVC.TrueHD.5.1-FGT 20.17GB-1.jpg
◎译  名 伦敦父女档/闪亮的明天(港)/最美丽的意外(台)
◎片  名 Demain tout commence
◎年  代 2016
◎产  地 法国/英国
◎类  别 剧情/笑剧
◎语  言 法语/英语
◎上映日期 2016-12-07(法国)
◎豆瓣评分 6.6/10 from 721 users
◎豆瓣链接 https://movie.douban.com/subject/26668283/
◎片  长 118分钟
◎导  演 雨果·盖林 Hugo Gélin
◎主  演 奥玛·赛 Omar Sy
      格洛丽亚·科尔斯顿 Gloria Colston
      克蕾曼丝·波西 Clémence Poésy
      安托万·贝特朗 Antoine Bertrand
      艾什雷·沃特斯 Ashley Walters
      克莱门汀·塞拉里耶 Clémentine Célarié
      安娜·科蒂斯 Anna Cottis
      拉斐尔·冯·布卢门撒尔 Raphael von Blumenthal
      本·霍姆伍德 Ben Homewood
      爱丽丝·戴维 Alice David
      莫娜·瓦尔拉芬斯· Mona Walravens
      拉奎尔·卡西迪 Raquel Cassidy
      霍华德·克罗斯利 Howard Crossley
      安娜贝尔·洛佩斯 Anabel Lopez
      西塞丽·卡塞儿 Cécile Cassel
      鲁本·阿尔维斯 Ruben Alves

◎简  介

  萨缪尔(欧麦?希饰),黑人移民后代,普罗旺斯地中海峡湾和沙滩上著名的花花令郎,白天给老板娘做奢华游艇驾驶员,早晨当迪吧派对主持人,凭仗着帅气、诙谐以及撩妹的天赋,获得了来交常常各类年龄女人的爱媚。一天早晨,不速之客克莉丝汀(克蕾曼丝?波西饰),抱着3个月大的混血女婴找上门,说孩子是和萨缪尔一年前的一夜情留下的,捏词付车资、抛下孩子走了。男主按照脸书上唯一的头像,来到伦敦寻克莉丝汀未果,偶遇法国老乡制片人贝尔尼(安托万?贝尔纳饰),在片场找到了生存,酿成超级奶爸,让孩子格罗里亚欢畅地长大。八年后的一天,孩子母亲忽然出现,情况变得复杂……

  1. Video
  2. ID                                       : 1
  3. Format                                   : AVC
  4. Format/Info                              : Advanced Video Codec
  5. Format profile                           : [url=/cdn-cgi/l/email-protection][email protected][/url]
  6. Format settings                          : CABAC / 4 Ref Frames
  7. Format settings, CABAC                   : Yes
  8. Format settings, ReFrames                : 4 frames
  9. Codec ID                                 : V_MPEG4/ISO/AVC
  10. Duration                                 : 1 h 56 min
  11. Bit rate mode                            : Variable
  12. Bit rate                                 : 20.5 Mb/s
  13. Maximum bit rate                         : 28.0 Mb/s
  14. Width                                    : 1 920 pixels
  15. Height                                   : 1 080 pixels
  16. Display aspect ratio                     : 16:9
  17. Frame rate mode                          : Constant
  18. Frame rate                               : 24.000 FPS
  19. Standard                                 : NTSC
  20. Color space                              : YUV
  21. Chroma subsampling                       : 4:2:0
  22. Bit depth                                : 8 bits
  23. Scan type                                : Progressive
  24. Bits/(Pixel*Frame)                       : 0.411
  25. Stream size                              : 16.7 GiB (83%)
  26. Title                                    : Two.Is.a.Family.2016.FRENCH.1080p.BluRay.REMUX.AVC.TrueHD.5.1-FGT
  27. Language                                 : English
  28. Default                                  : No
  29. Forced                                   : No
  30. Color range                              : Limited
  31. Color primaries                          : BT.709
  32. Transfer characteristics                 : BT.709
  33. Matrix coefficients                      : BT.709

  34. Audio #1
  35. ID                                       : 2
  36. Format                                   : TrueHD
  37. Codec ID                                 : A_TRUEHD
  38. Duration                                 : 1 h 56 min
  39. Bit rate mode                            : Variable
  40. Bit rate                                 : 2 872 kb/s
  41. Maximum bit rate                         : 4 416 kb/s
  42. Channel(s)                               : 6 channels
  43. Channel positions                        : Front: L C R, Side: L R, LFE
  44. Sampling rate                            : 96.0 kHz
  45. Frame rate                               : 2 400.000 FPS (40 SPF)
  46. Compression mode                         : Lossless
  47. Stream size                              : 2.34 GiB (12%)
  48. Title                                    : Two.Is.a.Family.2016.FRENCH.1080p.BluRay.REMUX.AVC.TrueHD.5.1-FGT
  49. Language                                 : French
  50. Default                                  : Yes
  51. Forced                                   : No

  52. Audio #2
  53. ID                                       : 3
  54. Format                                   : AC-3
  55. Format/Info                              : Audio Coding 3
  56. Codec ID                                 : A_AC3
  57. Duration                                 : 1 h 56 min
  58. Bit rate mode                            : Constant
  59. Bit rate                                 : 640 kb/s
  60. Channel(s)                               : 6 channels
  61. Channel positions                        : Front: L C R, Side: L R, LFE
  62. Sampling rate                            : 48.0 kHz
  63. Frame rate                               : 31.250 FPS (1536 SPF)
  64. Bit depth                                : 16 bits
  65. Compression mode                         : Lossy
  66. Stream size                              : 535 MiB (3%)
  67. Title                                    : Two.Is.a.Family.2016.FRENCH.1080p.BluRay.REMUX.AVC.TrueHD.5.1-FGT
  68. Language                                 : French
  69. Service kind                             : Complete Main
  70. Default                                  : No
  71. Forced                                   : No

  72. Audio #3
  73. ID                                       : 4
  74. Format                                   : AC-3
  75. Format/Info                              : Audio Coding 3
  76. Codec ID                                 : A_AC3
  77. Duration                                 : 1 h 56 min
  78. Bit rate mode                            : Constant
  79. Bit rate                                 : 640 kb/s
  80. Channel(s)                               : 6 channels
  81. Channel positions                        : Front: L C R, Side: L R, LFE
  82. Sampling rate                            : 48.0 kHz
  83. Frame rate                               : 31.250 FPS (1536 SPF)
  84. Bit depth                                : 16 bits
  85. Compression mode                         : Lossy
  86. Stream size                              : 535 MiB (3%)
  87. Title                                    : Two.Is.a.Family.2016.FRENCH.1080p.BluRay.REMUX.AVC.TrueHD.5.1-FGT
  88. Language                                 : French
  89. Service kind                             : Complete Main
  90. Default                                  : No
  91. Forced                                   : No

  92. Text #1
  93. ID                                       : 5
  94. Format                                   : PGS
  95. Muxing mode                              : zlib
  96. Codec ID                                 : S_HDMV/PGS
  97. Codec ID/Info                            : Picture based subtitle format used on BDs/HD-DVDs
  98. Duration                                 : 1 h 50 min
  99. Bit rate                                 : 30.2 kb/s
  100. Count of elements                        : 2264
  101. Stream size                              : 24.0 MiB (0%)
  102. Title                                    : English-PGS
  103. Language                                 : English
  104. Default                                  : Yes
  105. Forced                                   : Yes

  106. Text #2
  107. ID                                       : 6
  108. Format                                   : PGS
  109. Muxing mode                              : zlib
  110. Codec ID                                 : S_HDMV/PGS
  111. Codec ID/Info                            : Picture based subtitle format used on BDs/HD-DVDs
  112. Duration                                 : 1 h 50 min
  113. Bit rate                                 : 34.2 kb/s
  114. Count of elements                        : 2747
  115. Stream size                              : 27.1 MiB (0%)
  116. Title                                    : Chinese-PGS
  117. Language                                 : Chinese
  118. Default                                  : No
  119. Forced                                   : No

  120. Menu
  121. 00:00:00.000                             : en:Chapter 01
  122. 00:08:04.875                             : en:Chapter 02
  123. 00:19:42.708                             : en:Chapter 03
  124. 00:28:11.208                             : en:Chapter 04
  125. 00:35:46.625                             : en:Chapter 05
  126. 00:48:29.125                             : en:Chapter 06
  127. 00:57:29.375                             : en:Chapter 07
  128. 01:07:33.500                             : en:Chapter 08
  129. 01:20:14.708                             : en:Chapter 09
  130. 01:27:30.708                             : en:Chapter 10
  131. 01:38:53.250                             : en:Chapter 11
  132. 01:46:51.166                             : en:Chapter 12
复制代码

复制代码

伦敦父女档/闪亮的明天 Two.Is.a.Family.2016.FRENCH.1080p.BluRay.REMUX.AVC.TrueHD.5.1-FGT 20.17GB-2.png 伦敦父女档/闪亮的明天 Two.Is.a.Family.2016.FRENCH.1080p.BluRay.REMUX.AVC.TrueHD.5.1-FGT 20.17GB-3.png 伦敦父女档/闪亮的明天 Two.Is.a.Family.2016.FRENCH.1080p.BluRay.REMUX.AVC.TrueHD.5.1-FGT 20.17GB-4.png







回复

使用道具 举报

懒得打字嘛,点击右侧快捷回复 【右侧内容,后台自定义】
您需要登录后才可以回帖 登录 | 立即加入

本版积分规则

Archiver|小黑屋| 蓝光电影网 |网站地图

Copyright © 2021 Comsenz Inc. Powered by 蓝光电影网

蓝光电影网

本站内容由用户自主分享和转载自互联网,转载目的在于传递更多信息,并不代表本网赞同其观点和对其真实性负责。

如有侵权、违反国家法律政策行为,请联系我们,我们会第一时间及时清除和处理!

举报反馈邮箱:[email protected]

快速回复 返回顶部 返回列表