找回密码

蓝光电影网

查看: 616|回复: 2

[剧情] 万籁俱寂/天籁无声 The.Silence.1998.PERSIAN.1080p.BluRay.REMUX.AVC.LPCM.1.0-FGT 19.12GB

[复制链接]
蓝光币
623
发表于 2018-9-9 23:22:45 | 显示全部楼层 |阅读模式


◎译  名 万籁俱寂/天籁无声
◎片  名 ?????
◎年  代 1998
◎产  地 伊朗/塔吉克斯坦/法国
◎类  别 剧情/音乐
◎语  言 波斯语/塔吉克语/俄语
◎上映日期 1998-09-09
◎豆瓣评分 7.8/10 from 406 users
◎豆瓣链接 https://movie.douban.com/subject/1308371/
◎片  长 76 分钟
◎导  演 莫森·玛克玛尔巴夫 Mohsen Makhmalbaf
◎主  演 Tahmineh Normatova
      Nadereh Abdelahyeva
      Goibibi Ziadolahyeva

◎简  介

  在伊朗的一个小镇里,有一个10岁大与母亲生活在一路的男孩,他与普通孩子唯一的分歧就是双目失明,但天主却给了他极好的听觉。所以,他的工作是在乐器行当调音师,以及创作自己的音乐。天天,他坐车去一个生产乐器的作坊,穿越于都会的喧闹声中,用耳朵感受天下。
  严酷意义上讲,影片并没有给出什么故事,而是以一幅幅让人印象深入的构图,摸索人类与声音的关系,让观众静静地专心去体味,去感受。
  《天籁无声》获邀加入1998年威尼斯国际电影节,并获得"出格关注"在内的三个奖项,被影评人Harlan Kennedy誉为是此次影展中最优异的影片。

◎获奖情况

  第55届威尼斯电影节  (1998)
  主比赛单元 金狮奖 (提名) 莫森·玛克玛尔巴夫

  1. Video
  2. ID                                       : 1
  3. Format                                   : AVC
  4. Format/Info                              : Advanced Video Codec
  5. Format profile                           : [url=/cdn-cgi/l/email-protection][email protected][/url]
  6. Format settings                          : CABAC / 3 Ref Frames
  7. Format settings, CABAC                   : Yes
  8. Format settings, ReFrames                : 3 frames
  9. Codec ID                                 : V_MPEG4/ISO/AVC
  10. Duration                                 : 1 h 16 min
  11. Bit rate mode                            : Variable
  12. Bit rate                                 : 35.0 Mb/s
  13. Maximum bit rate                         : 38.0 Mb/s
  14. Width                                    : 1 920 pixels
  15. Height                                   : 1 080 pixels
  16. Display aspect ratio                     : 16:9
  17. Frame rate mode                          : Constant
  18. Frame rate                               : 23.976 (24000/1001) FPS
  19. Color space                              : YUV
  20. Chroma subsampling                       : 4:2:0
  21. Bit depth                                : 8 bits
  22. Scan type                                : Progressive
  23. Bits/(Pixel*Frame)                       : 0.704
  24. Stream size                              : 18.5 GiB (97%)
  25. Title                                    : The.Silence.1998.PERSIAN.1080p.BluRay.REMUX.AVC.LPCM.1.0-FGT
  26. Writing library                          : x264 core 155 r2901 7d0ff22
  27. Encoding settings                        : cabac=1 / ref=4 / deblock=1:0:0 / analyse=0x3:0x133 / me=umh / subme=10 / psy=1 / psy_rd=1.00:0.00 / mixed_ref=1 / me_range=24 / chroma_me=1 / trellis=2 / 8x8dct=1 / cqm=0 / deadzone=21,11 / fast_pskip=1 / chroma_qp_offset=-5 / threads=12 / lookahead_threads=1 / sliced_threads=0 / slices=4 / nr=0 / decimate=1 / interlaced=0 / bluray_compat=1 / constrained_intra=0 / bframes=3 / b_pyramid=1 / b_adapt=2 / b_bias=0 / direct=3 / weightb=1 / open_gop=1 / weightp=1 / keyint=24 / keyint_min=1 / scenecut=40 / intra_refresh=0 / rc_lookahead=24 / rc=2pass / mbtree=1 / bitrate=35000 / ratetol=0.1 / qcomp=0.00 / qpmin=0 / qpmax=69 / qpstep=4 / cplxblur=20.0 / qblur=0.5 / vbv_maxrate=38000 / vbv_bufsize=30000 / nal_hrd=vbr / filler=0 / ip_ratio=1.40 / aq=1:1.00
  28. Language                                 : English
  29. Default                                  : No
  30. Forced                                   : No
  31. Color range                              : Limited
  32. Color primaries                          : BT.709
  33. Transfer characteristics                 : BT.709
  34. Matrix coefficients                      : BT.709

  35. Audio
  36. ID                                       : 2
  37. Format                                   : PCM
  38. Format settings                          : Little / Signed
  39. Codec ID                                 : A_PCM/INT/LIT
  40. Duration                                 : 1 h 16 min
  41. Bit rate mode                            : Constant
  42. Bit rate                                 : 1 152 kb/s
  43. Sampling rate                            : 48.0 kHz
  44. Frame rate                               : 30.000 FPS (1600 SPF)
  45. Bit depth                                : 24 bits
  46. Stream size                              : 627 MiB (3%)
  47. Title                                    : The.Silence.1998.PERSIAN.1080p.BluRay.REMUX.AVC.LPCM.1.0-FGT
  48. Language                                 : peo
  49. Default                                  : Yes
  50. Forced                                   : No

  51. Text
  52. ID                                       : 3
  53. Format                                   : PGS
  54. Muxing mode                              : zlib
  55. Codec ID                                 : S_HDMV/PGS
  56. Codec ID/Info                            : Picture based subtitle format used on BDs/HD-DVDs
  57. Duration                                 : 1 h 15 min
  58. Bit rate                                 : 10.6 kb/s
  59. Count of elements                        : 758
  60. Stream size                              : 5.74 MiB (0%)
  61. Title                                    : English-PGS
  62. Language                                 : English
  63. Default                                  : Yes
  64. Forced                                   : Yes

  65. Menu
  66. 00:00:00.000                             : en:Chapter 01
  67. 00:06:21.506                             : en:Chapter 02
  68. 00:13:32.478                             : en:Chapter 03
  69. 00:21:34.167                             : en:Chapter 04
  70. 00:28:47.726                             : en:Chapter 05
  71. 00:32:29.447                             : en:Chapter 06
  72. 00:39:04.550                             : en:Chapter 07
  73. 00:43:57.843                             : en:Chapter 08
  74. 00:51:09.107                             : en:Chapter 09
  75. 00:56:37.727                             : en:Chapter 10
  76. 01:02:20.403                             : en:Chapter 11
  77. 01:09:59.987                             : en:Chapter 12
复制代码

复制代码








回复

使用道具 举报

懒得打字嘛,点击右侧快捷回复 【右侧内容,后台自定义】
您需要登录后才可以回帖 登录 | 立即加入

本版积分规则

Archiver|小黑屋| 蓝光电影网 |网站地图

Copyright © 2021 Comsenz Inc. Powered by 蓝光电影网

蓝光电影网

本站内容由用户自主分享和转载自互联网,转载目的在于传递更多信息,并不代表本网赞同其观点和对其真实性负责。

如有侵权、违反国家法律政策行为,请联系我们,我们会第一时间及时清除和处理!

举报反馈邮箱:[email protected]

快速回复 返回顶部 返回列表