找回密码

蓝光电影网

查看: 803|回复: 2

[喜剧] 夏日的嬷嬷茶 Summer.Holiday.2000.CHINESE.1080p.BluRay.REMUX.AVC.LPCM.2.0-FGT 20.49GB

[复制链接]
蓝光币
623
发表于 2018-9-9 23:23:50 | 显示全部楼层 |阅读模式

夏日的嬷嬷茶 Summer.Holiday.2000.CHINESE.1080p.BluRay.REMUX.AVC.LPCM.2.0-FGT 20.49GB-1.jpg
◎译  名 夏日么么茶/夏日的么么茶
◎片  名 夏日的嬷嬷茶
◎年  代 2000
◎产  地 香港
◎类  别 笑剧/恋爱
◎语  言 粤语/普通话
◎上映日期 2000-08-12(香港)
◎豆瓣评分 6.7/10 from 66,173 users
◎豆瓣链接 https://movie.douban.com/subject/1297291/
◎片  长 98分钟
◎导  演 马楚成 Jingle Ma
◎主  演 郑秀文 Sammi Cheng
      任贤齐 Richie Jen
      谷德昭 Vincent Kok
      阿牛 Ah-Niu
      沈傲君 Aojun Shen
      王凯蒂
      王光良
      郑斌辉 Ping Hui Tay

◎简  介

  Summer(郑秀文 饰)是一个奇迹型女性,可是她奇迹跟恋爱都失意。她只好来到马来西亚的丹丹岛,那边有一个沙滩是她与表格合资买下来的,恰好传出有财团想收买这个岛,与财团商量卖岛的事之余她还可以度假散心。来到岛上才晓得,表哥也由于欠债的题目把半个沙滩的卖给了一个叫么么茶(任贤齐 饰)确当地人。可是么么茶为了可以让喜好这个沙滩的人继续享用欢乐,分歧意把沙滩卖出。Summer只好软硬兼施,在不知不觉之间两人发生了奥妙的关系,继而展开了一场浪漫恋爱。

◎获奖情况

  第20届香港电影金像奖  (2001)
  最好摄影(提名) 陈国雄 / 马楚成
  最好美术指导(提名) 张世宏
  最好原创电影音乐(提名) 金培达
  最好原创电影歌曲(提名) 任贤齐 / 阿牛 / 光良

  1. Video
  2. ID                                       : 1
  3. Format                                   : AVC
  4. Format/Info                              : Advanced Video Codec
  5. Format profile                           : [url=/cdn-cgi/l/email-protection][email protected][/url]
  6. Format settings                          : CABAC / 4 Ref Frames
  7. Format settings, CABAC                   : Yes
  8. Format settings, ReFrames                : 4 frames
  9. Codec ID                                 : V_MPEG4/ISO/AVC
  10. Duration                                 : 1 h 35 min
  11. Bit rate mode                            : Variable
  12. Bit rate                                 : 26.0 Mb/s
  13. Maximum bit rate                         : 33.0 Mb/s
  14. Width                                    : 1 920 pixels
  15. Height                                   : 1 080 pixels
  16. Display aspect ratio                     : 16:9
  17. Frame rate mode                          : Constant
  18. Frame rate                               : 24.000 FPS
  19. Standard                                 : NTSC
  20. Color space                              : YUV
  21. Chroma subsampling                       : 4:2:0
  22. Bit depth                                : 8 bits
  23. Scan type                                : Progressive
  24. Bits/(Pixel*Frame)                       : 0.523
  25. Stream size                              : 17.4 GiB (85%)
  26. Title                                    : Summer.Holiday.2000.CHINESE.1080p.BluRay.REMUX.AVC.LPCM.2.0-FGT
  27. Language                                 : English
  28. Default                                  : No
  29. Forced                                   : No
  30. Color range                              : Limited
  31. Color primaries                          : BT.709
  32. Transfer characteristics                 : BT.709
  33. Matrix coefficients                      : BT.709

  34. Audio #1
  35. ID                                       : 2
  36. Format                                   : PCM
  37. Format settings                          : Little / Signed
  38. Codec ID                                 : A_PCM/INT/LIT
  39. Duration                                 : 1 h 35 min
  40. Bit rate mode                            : Constant
  41. Bit rate                                 : 2 304 kb/s
  42. Channel(s)                               : 2 channels
  43. Sampling rate                            : 48.0 kHz
  44. Frame rate                               : 30.000 FPS (1600 SPF)
  45. Bit depth                                : 24 bits
  46. Stream size                              : 1.54 GiB (8%)
  47. Title                                    : Summer.Holiday.2000.CHINESE.1080p.BluRay.REMUX.AVC.LPCM.2.0-FGT
  48. Language                                 : Chinese
  49. Default                                  : Yes
  50. Forced                                   : No

  51. Audio #2
  52. ID                                       : 3
  53. Format                                   : PCM
  54. Format settings                          : Little / Signed
  55. Codec ID                                 : A_PCM/INT/LIT
  56. Duration                                 : 1 h 35 min
  57. Bit rate mode                            : Constant
  58. Bit rate                                 : 2 304 kb/s
  59. Channel(s)                               : 2 channels
  60. Sampling rate                            : 48.0 kHz
  61. Frame rate                               : 30.000 FPS (1600 SPF)
  62. Bit depth                                : 24 bits
  63. Stream size                              : 1.54 GiB (8%)
  64. Title                                    : Summer.Holiday.2000.CHINESE.1080p.BluRay.REMUX.AVC.LPCM.2.0-FGT
  65. Language                                 : Chinese
  66. Default                                  : No
  67. Forced                                   : No

  68. Text #1
  69. ID                                       : 4
  70. Format                                   : PGS
  71. Muxing mode                              : zlib
  72. Codec ID                                 : S_HDMV/PGS
  73. Codec ID/Info                            : Picture based subtitle format used on BDs/HD-DVDs
  74. Duration                                 : 1 h 32 min
  75. Bit rate                                 : 29.6 kb/s
  76. Count of elements                        : 2050
  77. Stream size                              : 19.6 MiB (0%)
  78. Title                                    : English-PGS
  79. Language                                 : English
  80. Default                                  : Yes
  81. Forced                                   : Yes

  82. Text #2
  83. ID                                       : 5
  84. Format                                   : PGS
  85. Muxing mode                              : zlib
  86. Codec ID                                 : S_HDMV/PGS
  87. Codec ID/Info                            : Picture based subtitle format used on BDs/HD-DVDs
  88. Duration                                 : 1 h 32 min
  89. Bit rate                                 : 39.1 kb/s
  90. Count of elements                        : 2034
  91. Stream size                              : 25.8 MiB (0%)
  92. Title                                    : Chinese-PGS
  93. Language                                 : Chinese
  94. Default                                  : No
  95. Forced                                   : No

  96. Text #3
  97. ID                                       : 6
  98. Format                                   : PGS
  99. Muxing mode                              : zlib
  100. Codec ID                                 : S_HDMV/PGS
  101. Codec ID/Info                            : Picture based subtitle format used on BDs/HD-DVDs
  102. Duration                                 : 1 h 32 min
  103. Bit rate                                 : 38.7 kb/s
  104. Count of elements                        : 2060
  105. Stream size                              : 25.6 MiB (0%)
  106. Title                                    : Chinese-PGS
  107. Language                                 : Chinese
  108. Default                                  : No
  109. Forced                                   : No

  110. Menu
  111. 00:00:00.000                             : en:Chapter 01
  112. 00:08:45.500                             : en:Chapter 02
  113. 00:15:39.625                             : en:Chapter 03
  114. 00:23:19.750                             : en:Chapter 04
  115. 00:31:17.791                             : en:Chapter 05
  116. 00:40:28.041                             : en:Chapter 06
  117. 00:48:00.458                             : en:Chapter 07
  118. 00:58:23.375                             : en:Chapter 08
  119. 01:06:47.666                             : en:Chapter 09
  120. 01:11:46.625                             : en:Chapter 10
  121. 01:20:28.625                             : en:Chapter 11
  122. 01:27:04.916                             : en:Chapter 12
复制代码

复制代码

夏日的嬷嬷茶 Summer.Holiday.2000.CHINESE.1080p.BluRay.REMUX.AVC.LPCM.2.0-FGT 20.49GB-2.png 夏日的嬷嬷茶 Summer.Holiday.2000.CHINESE.1080p.BluRay.REMUX.AVC.LPCM.2.0-FGT 20.49GB-3.png 夏日的嬷嬷茶 Summer.Holiday.2000.CHINESE.1080p.BluRay.REMUX.AVC.LPCM.2.0-FGT 20.49GB-4.png






回复

使用道具 举报

懒得打字嘛,点击右侧快捷回复 【右侧内容,后台自定义】
您需要登录后才可以回帖 登录 | 立即加入

本版积分规则

Archiver|小黑屋| 蓝光电影网 |网站地图

Copyright © 2021 Comsenz Inc. Powered by 蓝光电影网

蓝光电影网

本站内容由用户自主分享和转载自互联网,转载目的在于传递更多信息,并不代表本网赞同其观点和对其真实性负责。

如有侵权、违反国家法律政策行为,请联系我们,我们会第一时间及时清除和处理!

举报反馈邮箱:[email protected]

快速回复 返回顶部 返回列表