找回密码

蓝光电影网

查看: 912|回复: 2

[惊悚] 致命毒蛇 Serpent.2017.1080p.BluRay.REMUX.AVC.DTS-HD.MA.5.1-FGT 12.89GB

[复制链接]
蓝光币
623
发表于 2018-9-9 23:24:48 | 显示全部楼层 |阅读模式

致命毒蛇 Serpent.2017.1080p.BluRay.REMUX.AVC.DTS-HD.MA.5.1-FGT 12.89GB-1.jpg
◎译  名 致命毒蛇
◎片  名 Serpent
◎年  代 2017
◎产  地 南非 South Africa
◎类  别 惊悚
◎语  言 英语
◎上映日期 2017-06-17(美国)
◎豆瓣评分 /10 from 0 users
◎豆瓣链接 https://movie.douban.com/subject/27082629/
◎片  长 85分钟
◎导  演 Amanda Evans
◎主  演 Tom Ainsley
      莎拉·杜蒙 Sarah Dumont
      Skye Russell

◎简  介

  A romantic escape into nature turns into the ultimate moment of reckoning when a husband and wife are trapped in a tent with a deadly snake. Unable to escape and with certain death looming, the tent becomes a heated confessional to a cataclysmic truth. Betrayed, the couple finds themselves spiraling into a dark and dangerous space of which only one can survive.

  1. Video
  2. ID                                       : 1
  3. Format                                   : AVC
  4. Format/Info                              : Advanced Video Codec
  5. Format profile                           : [url=/cdn-cgi/l/email-protection][email protected][/url]
  6. Format settings                          : CABAC / 2 Ref Frames
  7. Format settings, CABAC                   : Yes
  8. Format settings, ReFrames                : 2 frames
  9. Codec ID                                 : V_MPEG4/ISO/AVC
  10. Duration                                 : 1 h 25 min
  11. Bit rate mode                            : Variable
  12. Bit rate                                 : 19.0 Mb/s
  13. Maximum bit rate                         : 30.2 Mb/s
  14. Width                                    : 1 920 pixels
  15. Height                                   : 1 080 pixels
  16. Display aspect ratio                     : 16:9
  17. Frame rate mode                          : Constant
  18. Frame rate                               : 23.976 (24000/1001) FPS
  19. Color space                              : YUV
  20. Chroma subsampling                       : 4:2:0
  21. Bit depth                                : 8 bits
  22. Scan type                                : Progressive
  23. Bits/(Pixel*Frame)                       : 0.382
  24. Stream size                              : 11.4 GiB (88%)
  25. Title                                    : Serpent.2017.1080p.BluRay.REMUX.AVC.DTS-HD.MA.5.1-FGT
  26. Language                                 : English
  27. Default                                  : No
  28. Forced                                   : No

  29. Audio #1
  30. ID                                       : 2
  31. Format                                   : DTS
  32. Format/Info                              : Digital Theater Systems
  33. Format profile                           : MA / Core
  34. Codec ID                                 : A_DTS
  35. Duration                                 : 1 h 25 min
  36. Bit rate mode                            : Variable / Constant
  37. Bit rate                                 : 1 765 kb/s / 768 kb/s
  38. Channel(s)                               : 6 channels
  39. Channel positions                        : Front: L C R, Side: L R, LFE
  40. Sampling rate                            : 48.0 kHz
  41. Frame rate                               : 93.750 FPS (512 SPF)
  42. Bit depth                                : 16 bits
  43. Compression mode                         : Lossless / Lossy
  44. Stream size                              : 1.06 GiB (8%)
  45. Title                                    : Serpent.2017.1080p.BluRay.REMUX.AVC.DTS-HD.MA.5.1-FGT
  46. Language                                 : English
  47. Default                                  : Yes
  48. Forced                                   : No

  49. Audio #2
  50. ID                                       : 3
  51. Format                                   : DTS
  52. Format/Info                              : Digital Theater Systems
  53. Codec ID                                 : A_DTS
  54. Duration                                 : 1 h 25 min
  55. Bit rate mode                            : Constant
  56. Bit rate                                 : 768 kb/s
  57. Channel(s)                               : 6 channels
  58. Channel positions                        : Front: L C R, Side: L R, LFE
  59. Sampling rate                            : 48.0 kHz
  60. Frame rate                               : 93.750 FPS (512 SPF)
  61. Bit depth                                : 16 bits
  62. Compression mode                         : Lossy
  63. Stream size                              : 471 MiB (4%)
  64. Title                                    : Serpent.2017.1080p.BluRay.REMUX.AVC.DTS-HD.MA.5.1-FGT
  65. Language                                 : English
  66. Default                                  : No
  67. Forced                                   : No

  68. Menu
  69. 00:00:00.000                             : en:Chapter 01
  70. 00:04:51.499                             : en:Chapter 02
  71. 00:12:38.257                             : en:Chapter 03
  72. 00:16:42.710                             : en:Chapter 04
  73. 00:23:56.685                             : en:Chapter 05
  74. 00:28:21.700                             : en:Chapter 06
  75. 00:35:27.917                             : en:Chapter 07
  76. 00:43:34.361                             : en:Chapter 08
  77. 00:53:25.452                             : en:Chapter 09
  78. 01:07:10.401                             : en:Chapter 10
  79. 01:13:19.686                             : en:Chapter 11
  80. 01:22:15.305                             : en:Chapter 12
复制代码

复制代码

致命毒蛇 Serpent.2017.1080p.BluRay.REMUX.AVC.DTS-HD.MA.5.1-FGT 12.89GB-2.png 致命毒蛇 Serpent.2017.1080p.BluRay.REMUX.AVC.DTS-HD.MA.5.1-FGT 12.89GB-3.png 致命毒蛇 Serpent.2017.1080p.BluRay.REMUX.AVC.DTS-HD.MA.5.1-FGT 12.89GB-4.png






回复

使用道具 举报

懒得打字嘛,点击右侧快捷回复 【右侧内容,后台自定义】
您需要登录后才可以回帖 登录 | 立即加入

本版积分规则

Archiver|小黑屋| 蓝光电影网 |网站地图

Copyright © 2021 Comsenz Inc. Powered by 蓝光电影网

蓝光电影网

本站内容由用户自主分享和转载自互联网,转载目的在于传递更多信息,并不代表本网赞同其观点和对其真实性负责。

如有侵权、违反国家法律政策行为,请联系我们,我们会第一时间及时清除和处理!

举报反馈邮箱:[email protected]

快速回复 返回顶部 返回列表