找回密码

蓝光电影网

查看: 793|回复: 3

[剧情] 魔毯/编织爱情的姑娘 Gabbeh.1996.PERSIAN.1080p.BluRay.REMUX.AVC.LPCM.1.0-FGT 18.67GB

[复制链接]
蓝光币
623
发表于 2018-9-9 23:25:51 | 显示全部楼层 |阅读模式

魔毯/编织恋爱的姑娘 Gabbeh.1996.PERSIAN.1080p.BluRay.REMUX.AVC.LPCM.1.0-FGT 18.67GB-1.jpg
◎译  名 魔毯/编织恋爱的姑娘
◎片  名 ????
◎年  代 1996
◎产  地 伊朗/法国
◎类  别 剧情/悬疑/恋爱
◎语  言 波斯语
◎上映日期 1996-05-13(戛纳电影节)/1996-06-26(法国)
◎豆瓣评分 7.6/10 from 177 users
◎豆瓣链接 https://movie.douban.com/subject/1294810/
◎片  长 75 分钟/Japan: 73 分钟
◎导  演 莫森·玛克玛尔巴夫 Mohsen Makhmalbaf
◎主  演 Abbas Sayah
      Shaghayeh Djodat
      Hossein Moharami

◎简  介

  我看过的最美的一部伊朗电影!
  波斯绣毯天下著名,一对老佳耦就具有这么一张绣毯,上面绣着人物图案。当他们清洗绣毯时,从绣毯中奇异地走出一个姑娘,并报告了一个忧伤的故事:姑娘与一个骑手两情相悦,他们的恋爱却遭到了家属的否决,姑娘父亲甚至设备了各种障碍。在重重压力下,他们仍然苦苦对峙,姑外家庭属于游牧民族,经常迁移,痴情的骑手便牢牢尾随在前面,陪伴着姑娘直到假寓地址。安置下来后,姑娘决议与骑手私奔,就在他们策马狂奔出走的时辰,发现他们踪影的人群牢牢追逐,并用枪竣事了这对有情人的生命。本来这就是绣毯上的故事。

◎获奖情况

  第9届东京国际电影节  (1996)
  主比赛单元 最好影片(提名) 莫森·玛克玛尔巴夫
  主比赛单元 最好艺术进献奖 莫森·玛克玛尔巴夫

  1. Video
  2. ID                                       : 1
  3. Format                                   : AVC
  4. Format/Info                              : Advanced Video Codec
  5. Format profile                           : [url=/cdn-cgi/l/email-protection][email protected][/url]
  6. Format settings                          : CABAC / 3 Ref Frames
  7. Format settings, CABAC                   : Yes
  8. Format settings, ReFrames                : 3 frames
  9. Codec ID                                 : V_MPEG4/ISO/AVC
  10. Duration                                 : 1 h 12 min
  11. Bit rate mode                            : Variable
  12. Bit rate                                 : 35.0 Mb/s
  13. Maximum bit rate                         : 38.0 Mb/s
  14. Width                                    : 1 920 pixels
  15. Height                                   : 1 080 pixels
  16. Display aspect ratio                     : 16:9
  17. Frame rate mode                          : Constant
  18. Frame rate                               : 23.976 (24000/1001) FPS
  19. Color space                              : YUV
  20. Chroma subsampling                       : 4:2:0
  21. Bit depth                                : 8 bits
  22. Scan type                                : Progressive
  23. Bits/(Pixel*Frame)                       : 0.704
  24. Stream size                              : 17.7 GiB (95%)
  25. Title                                    : Gabbeh.1996.PERSIAN.1080p.BluRay.REMUX.AVC.LPCM.1.0-FGT
  26. Writing library                          : x264 core 155 r2901 7d0ff22
  27. Encoding settings                        : cabac=1 / ref=4 / deblock=1:0:0 / analyse=0x3:0x133 / me=umh / subme=10 / psy=1 / psy_rd=1.00:0.00 / mixed_ref=1 / me_range=24 / chroma_me=1 / trellis=2 / 8x8dct=1 / cqm=0 / deadzone=21,11 / fast_pskip=1 / chroma_qp_offset=-5 / threads=12 / lookahead_threads=1 / sliced_threads=0 / slices=4 / nr=0 / decimate=1 / interlaced=0 / bluray_compat=1 / constrained_intra=0 / bframes=3 / b_pyramid=1 / b_adapt=2 / b_bias=0 / direct=3 / weightb=1 / open_gop=1 / weightp=1 / keyint=24 / keyint_min=1 / scenecut=40 / intra_refresh=0 / rc_lookahead=24 / rc=2pass / mbtree=1 / bitrate=35000 / ratetol=0.1 / qcomp=0.00 / qpmin=0 / qpmax=69 / qpstep=4 / cplxblur=20.0 / qblur=0.5 / vbv_maxrate=38000 / vbv_bufsize=30000 / nal_hrd=vbr / filler=0 / ip_ratio=1.40 / aq=1:1.00
  28. Language                                 : English
  29. Default                                  : No
  30. Forced                                   : No
  31. Color range                              : Limited
  32. Color primaries                          : BT.709
  33. Transfer characteristics                 : BT.709
  34. Matrix coefficients                      : BT.709

  35. Audio #1
  36. ID                                       : 2
  37. Format                                   : PCM
  38. Format settings                          : Little / Signed
  39. Codec ID                                 : A_PCM/INT/LIT
  40. Duration                                 : 1 h 12 min
  41. Bit rate mode                            : Constant
  42. Bit rate                                 : 1 152 kb/s
  43. Sampling rate                            : 48.0 kHz
  44. Frame rate                               : 30.000 FPS (1600 SPF)
  45. Bit depth                                : 24 bits
  46. Stream size                              : 599 MiB (3%)
  47. Title                                    : Gabbeh.1996.PERSIAN.1080p.BluRay.REMUX.AVC.LPCM.1.0-FGT
  48. Language                                 : peo
  49. Default                                  : Yes
  50. Forced                                   : No

  51. Audio #2
  52. ID                                       : 3
  53. Format                                   : PCM
  54. Format settings                          : Little / Signed
  55. Codec ID                                 : A_PCM/INT/LIT
  56. Duration                                 : 1 h 12 min
  57. Bit rate mode                            : Constant
  58. Bit rate                                 : 768 kb/s
  59. Sampling rate                            : 48.0 kHz
  60. Frame rate                               : 30.000 FPS (1600 SPF)
  61. Bit depth                                : 16 bits
  62. Stream size                              : 399 MiB (2%)
  63. Title                                    : Gabbeh.1996.PERSIAN.1080p.BluRay.REMUX.AVC.LPCM.1.0-FGT
  64. Language                                 : English
  65. Default                                  : No
  66. Forced                                   : No

  67. Text
  68. ID                                       : 4
  69. Format                                   : PGS
  70. Muxing mode                              : zlib
  71. Codec ID                                 : S_HDMV/PGS
  72. Codec ID/Info                            : Picture based subtitle format used on BDs/HD-DVDs
  73. Duration                                 : 1 h 12 min
  74. Bit rate                                 : 14.3 kb/s
  75. Count of elements                        : 918
  76. Stream size                              : 7.38 MiB (0%)
  77. Title                                    : English-PGS
  78. Language                                 : English
  79. Default                                  : Yes
  80. Forced                                   : Yes

  81. Menu
  82. 00:00:00.000                             : en:Chapter 01
  83. 00:06:31.641                             : en:Chapter 02
  84. 00:12:43.929                             : en:Chapter 03
  85. 00:18:49.169                             : en:Chapter 04
  86. 00:23:58.311                             : en:Chapter 05
  87. 00:30:37.085                             : en:Chapter 06
  88. 00:37:51.310                             : en:Chapter 07
  89. 00:43:18.012                             : en:Chapter 08
  90. 00:48:26.695                             : en:Chapter 09
  91. 00:54:39.067                             : en:Chapter 10
  92. 01:00:04.434                             : en:Chapter 11
  93. 01:06:37.910                             : en:Chapter 12
复制代码

复制代码

魔毯/编织恋爱的姑娘 Gabbeh.1996.PERSIAN.1080p.BluRay.REMUX.AVC.LPCM.1.0-FGT 18.67GB-2.png 魔毯/编织恋爱的姑娘 Gabbeh.1996.PERSIAN.1080p.BluRay.REMUX.AVC.LPCM.1.0-FGT 18.67GB-3.png 魔毯/编织恋爱的姑娘 Gabbeh.1996.PERSIAN.1080p.BluRay.REMUX.AVC.LPCM.1.0-FGT 18.67GB-4.png





回复

使用道具 举报

懒得打字嘛,点击右侧快捷回复 【右侧内容,后台自定义】
您需要登录后才可以回帖 登录 | 立即加入

本版积分规则

Archiver|小黑屋| 蓝光电影网 |网站地图

Copyright © 2021 Comsenz Inc. Powered by 蓝光电影网

蓝光电影网

本站内容由用户自主分享和转载自互联网,转载目的在于传递更多信息,并不代表本网赞同其观点和对其真实性负责。

如有侵权、违反国家法律政策行为,请联系我们,我们会第一时间及时清除和处理!

举报反馈邮箱:[email protected]

快速回复 返回顶部 返回列表