找回密码

蓝光电影网

查看: 905|回复: 4

[动作] 奇謀妙計五福星 Winners.and.Sinners.1983.CHINESE.1080p.BluRay.REMUX.AVC.DTS-HD.MA.7.1-FGT 21.18GB

[复制链接]
蓝光币
682
发表于 2018-9-9 23:27:54 | 显示全部楼层 |阅读模式

奇謀妙計五福星 Winners.and.Sinners.1983.CHINESE.1080p.BluRay.REMUX.AVC.DTS-HD.MA.7.1-FGT 21.18GB-1.jpg
◎译  名 奇谋奇策五福星
◎片  名 奇謀妙計五福星
◎年  代 1983
◎产  地 香港
◎类  别 行动/笑剧/犯罪
◎语  言 粤语
◎上映日期 1983-07-07
◎豆瓣评分 7.6/10 from 15,960 users
◎豆瓣链接 https://movie.douban.com/subject/1293658/
◎片  长 108 分钟
◎导  演 洪金宝
◎主  演 洪金宝
      吴耀汉
      冯淬帆
      岑建勋
      秦祥林
      钟楚红
      成龙
      叶童
      林正英
      夏文汐
      太保
      元彪
      李赛凤
      午马 Wu Ma

◎简  介

  狱中5个素昧生平的人成了好兄弟——五福星。茶壶(洪金宝 饰)、暮气喉(吴耀汉 饰)、卷毛积(岑建勋 饰)、凡士林(秦祥林 饰)和鲁奇(冯淬帆 饰)五人皆因小偷小摸或跑龙套成了冤大头,他们决心出狱后重新做人,光亮正大挣钱。五人同一天出狱了,出狱后他们合资建立了一间清洁公司,专门帮公司或家居停止清洁。
  一天,黑帮在买卖制贩假炒的电版时,被当地一个愣差人撞见了。忙乱之下,他们将电版藏进了五福星的清洁车的清洁箱内。绝不知情的五福星就这样又无故卷入了江湖是非中:一方面,差人思疑他们是黑帮朋友,在四出通缉他们;另一方面,黑帮也在追随他们,想杀人灭口取回电版。五福星在进退失据的地步若何应用他们的奇谋奇策脱险?

◎获奖情况

  第3届香港电影金像奖  (1984)
  最好男配角(提名) 吴耀汉
  最好行动设想 元彪 / 陈会毅 / 林正英

  1. Video
  2. ID                                       : 1
  3. Format                                   : AVC
  4. Format/Info                              : Advanced Video Codec
  5. Format profile                           : [url=/cdn-cgi/l/email-protection][email protected][/url]
  6. Format settings                          : CABAC / 4 Ref Frames
  7. Format settings, CABAC                   : Yes
  8. Format settings, ReFrames                : 4 frames
  9. Format settings, GOP                     : M=3, N=24
  10. Codec ID                                 : V_MPEG4/ISO/AVC
  11. Duration                                 : 1 h 48 min
  12. Bit rate mode                            : Variable
  13. Bit rate                                 : 23.0 Mb/s
  14. Maximum bit rate                         : 30.0 Mb/s
  15. Width                                    : 1 920 pixels
  16. Height                                   : 1 080 pixels
  17. Display aspect ratio                     : 16:9
  18. Frame rate mode                          : Constant
  19. Frame rate                               : 23.976 (24000/1001) FPS
  20. Standard                                 : NTSC
  21. Color space                              : YUV
  22. Chroma subsampling                       : 4:2:0
  23. Bit depth                                : 8 bits
  24. Scan type                                : Progressive
  25. Bits/(Pixel*Frame)                       : 0.463
  26. Stream size                              : 17.4 GiB (82%)
  27. Title                                    : Winners.and.Sinners.1983.CHINESE.1080p.BluRay.REMUX.AVC.DTS-HD.MA.7.1-FGT
  28. Language                                 : English
  29. Default                                  : No
  30. Forced                                   : No
  31. Color range                              : Limited
  32. Color primaries                          : BT.709
  33. Transfer characteristics                 : BT.709
  34. Matrix coefficients                      : BT.709

  35. Audio #1
  36. ID                                       : 2
  37. Format                                   : DTS
  38. Format/Info                              : Digital Theater Systems
  39. Format profile                           : MA / Core
  40. Codec ID                                 : A_DTS
  41. Duration                                 : 1 h 48 min
  42. Bit rate mode                            : Variable / Constant
  43. Bit rate                                 : 2 835 kb/s / 1 509 kb/s
  44. Channel(s)                               : 8 channels / 6 channels
  45. Channel positions                        : Front: L C R, Side: L R, Back: L R, LFE / Front: L C R, Side: L R, LFE
  46. Sampling rate                            : 48.0 kHz
  47. Frame rate                               : 93.750 FPS (512 SPF)
  48. Bit depth                                : 16 bits
  49. Compression mode                         : Lossless / Lossy
  50. Stream size                              : 2.14 GiB (10%)
  51. Title                                    : Winners.and.Sinners.1983.CHINESE.1080p.BluRay.REMUX.AVC.DTS-HD.MA.7.1-FGT
  52. Language                                 : Chinese
  53. Default                                  : Yes
  54. Forced                                   : No

  55. Audio #2
  56. ID                                       : 3
  57. Format                                   : DTS
  58. Format/Info                              : Digital Theater Systems
  59. Codec ID                                 : A_DTS
  60. Duration                                 : 1 h 48 min
  61. Bit rate mode                            : Constant
  62. Bit rate                                 : 1 509 kb/s
  63. Channel(s)                               : 6 channels
  64. Channel positions                        : Front: L C R, Side: L R, LFE
  65. Sampling rate                            : 48.0 kHz
  66. Frame rate                               : 93.750 FPS (512 SPF)
  67. Bit depth                                : 16 bits
  68. Compression mode                         : Lossy
  69. Stream size                              : 1.14 GiB (5%)
  70. Title                                    : Winners.and.Sinners.1983.CHINESE.1080p.BluRay.REMUX.AVC.DTS-HD.MA.7.1-FGT
  71. Language                                 : Chinese
  72. Default                                  : No
  73. Forced                                   : No

  74. Audio #3
  75. ID                                       : 4
  76. Format                                   : AC-3
  77. Format/Info                              : Audio Coding 3
  78. Codec ID                                 : A_AC3
  79. Duration                                 : 1 h 48 min
  80. Bit rate mode                            : Constant
  81. Bit rate                                 : 640 kb/s
  82. Channel(s)                               : 6 channels
  83. Channel positions                        : Front: L C R, Side: L R, LFE
  84. Sampling rate                            : 48.0 kHz
  85. Frame rate                               : 31.250 FPS (1536 SPF)
  86. Bit depth                                : 16 bits
  87. Compression mode                         : Lossy
  88. Stream size                              : 495 MiB (2%)
  89. Title                                    : Winners.and.Sinners.1983.CHINESE.1080p.BluRay.REMUX.AVC.DTS-HD.MA.7.1-FGT
  90. Language                                 : Chinese
  91. Service kind                             : Complete Main
  92. Default                                  : No
  93. Forced                                   : No

  94. Text #1
  95. ID                                       : 5
  96. Format                                   : PGS
  97. Muxing mode                              : zlib
  98. Codec ID                                 : S_HDMV/PGS
  99. Codec ID/Info                            : Picture based subtitle format used on BDs/HD-DVDs
  100. Duration                                 : 1 h 47 min
  101. Bit rate                                 : 30.7 kb/s
  102. Count of elements                        : 2704
  103. Stream size                              : 23.6 MiB (0%)
  104. Title                                    : English-PGS
  105. Language                                 : English
  106. Default                                  : Yes
  107. Forced                                   : Yes

  108. Text #2
  109. ID                                       : 6
  110. Format                                   : PGS
  111. Muxing mode                              : zlib
  112. Codec ID                                 : S_HDMV/PGS
  113. Codec ID/Info                            : Picture based subtitle format used on BDs/HD-DVDs
  114. Duration                                 : 1 h 47 min
  115. Bit rate                                 : 30.0 kb/s
  116. Count of elements                        : 2704
  117. Stream size                              : 23.1 MiB (0%)
  118. Title                                    : Chinese-PGS
  119. Language                                 : Chinese
  120. Default                                  : No
  121. Forced                                   : No

  122. Menu
  123. 00:00:00.000                             : en:Chapter 01
  124. 00:04:25.390                             : en:Chapter 02
  125. 00:09:28.442                             : en:Chapter 03
  126. 00:13:17.797                             : en:Chapter 04
  127. 00:19:13.318                             : en:Chapter 05
  128. 00:25:40.872                             : en:Chapter 06
  129. 00:32:24.233                             : en:Chapter 07
  130. 00:38:09.745                             : en:Chapter 08
  131. 00:43:36.780                             : en:Chapter 09
  132. 00:48:23.775                             : en:Chapter 10
  133. 00:53:16.818                             : en:Chapter 11
  134. 00:59:29.148                             : en:Chapter 12
  135. 01:05:31.177                             : en:Chapter 13
  136. 01:09:34.920                             : en:Chapter 14
  137. 01:16:58.322                             : en:Chapter 15
  138. 01:21:54.910                             : en:Chapter 16
  139. 01:26:38.860                             : en:Chapter 17
  140. 01:31:32.820                             : en:Chapter 18
  141. 01:39:18.619                             : en:Chapter 19
  142. 01:44:05.364                             : en:Chapter 20
复制代码

复制代码

奇謀妙計五福星 Winners.and.Sinners.1983.CHINESE.1080p.BluRay.REMUX.AVC.DTS-HD.MA.7.1-FGT 21.18GB-2.png 奇謀妙計五福星 Winners.and.Sinners.1983.CHINESE.1080p.BluRay.REMUX.AVC.DTS-HD.MA.7.1-FGT 21.18GB-3.png 奇謀妙計五福星 Winners.and.Sinners.1983.CHINESE.1080p.BluRay.REMUX.AVC.DTS-HD.MA.7.1-FGT 21.18GB-4.png







回复

使用道具 举报

懒得打字嘛,点击右侧快捷回复 【右侧内容,后台自定义】
您需要登录后才可以回帖 登录 | 立即加入

本版积分规则

Archiver|小黑屋| 蓝光电影网 |网站地图

Copyright © 2021 Comsenz Inc. Powered by 蓝光电影网

蓝光电影网

本站内容由用户自主分享和转载自互联网,转载目的在于传递更多信息,并不代表本网赞同其观点和对其真实性负责。

如有侵权、违反国家法律政策行为,请联系我们,我们会第一时间及时清除和处理!

举报反馈邮箱:[email protected]

快速回复 返回顶部 返回列表