找回密码

蓝光电影网

查看: 1392|回复: 2

[战争] 威灵顿之线/威灵顿战线 Lines.of.Wellington.2012.720p.BluRay.x264-FUTURiSTiC 6.59GB

[复制链接]
蓝光币
623
发表于 2018-9-12 00:04:13 | 显示全部楼层 |阅读模式

威灵顿之线/威灵顿阵线 Lines.of.Wellington.2012.720p.BluRay.x264-FUTURiSTiC 6.59GB-1.jpg
◎译  名 威灵顿之线/威灵顿阵线
◎片  名 Linhas de Wellington
◎年  代 2012
◎产  地 法国/葡萄牙
◎类  别 战争
◎语  言 葡萄牙语/英语/法语
◎上映日期 2012-09-04(威尼斯电影节)
◎豆瓣评分 5.7/10 from 163 users
◎豆瓣链接 https://movie.douban.com/subject/6873780/
◎片  长 151分钟
◎导  演 瓦莱丽亚·萨米恩托 Valeria Sarmiento
◎主  演 努诺·洛佩斯 Nuno Lopes
      索莱娅·查韦斯 Soraia Chaves
      玛丽萨·帕雷德斯 Marisa Paredes
      约翰·马尔科维奇 John Malkovich
      卡里托·科塔 Carloto Cotta
      维多利亚·盖拉 Victória Guerra
      马塞洛·乌戈盖 Marcello Urgeghe
      杰迈玛·韦斯特 Jemima West
      何塞·阿方索·皮蒙特尔 José Afonso Pimentel
      Miguel Borges
      马修·阿马立克 Mathieu Amalric
      梅尔维尔·珀波 Melvil Poupaud
      Filipe Vargas
      Adriano Luz
      约翰·尤海斯 Jo?o Arrais
      艾尔莎·泽贝斯坦 Elsa Zylberstein
      文森特·佩雷斯 Vincent Perez
      Albano Jerónimo
      凯瑟琳·德纳芙 Catherine Deneuve
      伊莎贝尔·于佩尔 Isabelle Huppert
      米歇尔·皮科利 Michel Piccoli
      齐雅拉·马斯楚安尼 Chiara Mastroianni
      马立克·兹迪 Malik Zidi
      米格尔·蒙蒂罗 Miguel Monteiro

◎简  介

  获2012年威尼斯电影节金狮提名,智利著名导演拉乌·鲁兹的历史战争剧情遗作,众多明星包括西班牙女星玛丽莎·佩雷德斯、法国影后伊莎贝尔·于佩尔以及约翰·马尔科维奇等出演该片向其致敬,影片报告了1810年传奇将军惠灵顿率葡萄牙军队抵抗法国精锐入侵的历史决战,终极让拿破仑兵败滑铁卢…

◎获奖情况

  第69届威尼斯电影节  (2012)
  金狮奖(提名) 瓦莱丽亚·萨米恩托

  1. Video
  2. ID                                       : 1
  3. Format                                   : AVC
  4. Format/Info                              : Advanced Video Codec
  5. Format profile                           : [url=/cdn-cgi/l/email-protection][email protected][/url]
  6. Format settings                          : CABAC / 12 Ref Frames
  7. Format settings, CABAC                   : Yes
  8. Format settings, RefFrames               : 12 frames
  9. Codec ID                                 : V_MPEG4/ISO/AVC
  10. Duration                                 : 2 h 31 min
  11. Bit rate                                 : 4 688 kb/s
  12. Width                                    : 1 280 pixels
  13. Height                                   : 536 pixels
  14. Display aspect ratio                     : 2.40:1
  15. Frame rate mode                          : Constant
  16. Frame rate                               : 24.000 FPS
  17. Color space                              : YUV
  18. Chroma subsampling                       : 4:2:0
  19. Bit depth                                : 8 bits
  20. Scan type                                : Progressive
  21. Bits/(Pixel*Frame)                       : 0.285
  22. Stream size                              : 4.83 GiB (74%)
  23. Writing library                          : x264 core 157 r2932 303c484
  24. Encoding settings                        : cabac=1 / ref=12 / deblock=1:0:0 / analyse=0x3:0x133 / me=umh / subme=10 / psy=1 / psy_rd=1.00:0.00 / mixed_ref=1 / me_range=24 / chroma_me=1 / trellis=2 / 8x8dct=1 / cqm=0 / deadzone=21,11 / fast_pskip=1 / chroma_qp_offset=-2 / threads=17 / lookahead_threads=2 / sliced_threads=0 / nr=0 / decimate=1 / interlaced=0 / bluray_compat=0 / constrained_intra=0 / bframes=8 / b_pyramid=2 / b_adapt=2 / b_bias=0 / direct=3 / weightb=1 / open_gop=0 / weightp=2 / keyint=250 / keyint_min=24 / scenecut=40 / intra_refresh=0 / rc_lookahead=60 / rc=2pass / mbtree=1 / bitrate=4688 / ratetol=1.0 / qcomp=0.60 / qpmin=0 / qpmax=69 / qpstep=4 / cplxblur=20.0 / qblur=0.5 / ip_ratio=1.40 / aq=1:1.00
  25. Default                                  : Yes
  26. Forced                                   : No
  27. Statistics Tags Issue                    : no_variable_data 1970-01-01 00:00:00 / no_variable_data 2010-02-22 21:41:29
  28. FromStats_BitRate                        : 4687167
  29. FromStats_Duration                       : 02:31:31.167000000
  30. FromStats_FrameCount                     : 218188
  31. FromStats_StreamSize                     : 5326477686

  32. Audio
  33. ID                                       : 2
  34. Format                                   : DTS
  35. Format/Info                              : Digital Theater Systems
  36. Mode                                     : 16
  37. Format settings, Endianness              : Big
  38. Codec ID                                 : A_DTS
  39. Duration                                 : 2 h 31 min
  40. Bit rate mode                            : Constant
  41. Bit rate                                 : 1 509 kb/s
  42. Channel(s)                               : 6 channels
  43. Channel positions                        : Front: L C R, Side: L R, LFE
  44. Sampling rate                            : 48.0 kHz
  45. Frame rate                               : 93.750 FPS (512 SPF)
  46. Bit depth                                : 24 bits
  47. Compression mode                         : Lossy
  48. Stream size                              : 1.60 GiB (24%)
  49. Title                                    : Portuguese audio
  50. Language                                 : Portuguese
  51. Default                                  : Yes
  52. Forced                                   : No
  53. Statistics Tags Issue                    : no_variable_data 1970-01-01 00:00:00 / no_variable_data 2010-02-22 21:41:29
  54. FromStats_BitRate                        : 1509000
  55. FromStats_Duration                       : 02:31:30.592000000
  56. FromStats_FrameCount                     : 852243
  57. FromStats_StreamSize                     : 1714712916

  58. Text #1
  59. ID                                       : 3
  60. Format                                   : UTF-8
  61. Codec ID                                 : S_TEXT/UTF8
  62. Codec ID/Info                            : UTF-8 Plain Text
  63. Title                                    : English subtitles
  64. Language                                 : English
  65. Default                                  : Yes
  66. Forced                                   : No
  67. Statistics Tags Issue                    : no_variable_data 1970-01-01 00:00:00 / no_variable_data 2010-02-22 21:41:29
  68. FromStats_BitRate                        : 31
  69. FromStats_Duration                       : 02:29:04.250000000
  70. FromStats_FrameCount                     : 1081
  71. FromStats_StreamSize                     : 35262

  72. Text #2
  73. ID                                       : 4
  74. Format                                   : UTF-8
  75. Codec ID                                 : S_TEXT/UTF8
  76. Codec ID/Info                            : UTF-8 Plain Text
  77. Title                                    : French subtitles
  78. Language                                 : French
  79. Default                                  : No
  80. Forced                                   : No
  81. Statistics Tags Issue                    : no_variable_data 1970-01-01 00:00:00 / no_variable_data 2010-02-22 21:41:29
  82. FromStats_BitRate                        : 41
  83. FromStats_Duration                       : 02:29:04.250000000
  84. FromStats_FrameCount                     : 1310
  85. FromStats_StreamSize                     : 46879

  86. Menu
  87. 00:00:00.000                             : en:00:00:00.000
  88. 00:13:42.000                             : en:00:13:42.000
  89. 00:27:16.000                             : en:00:27:16.000
  90. 00:37:31.000                             : en:00:37:31.000
  91. 00:54:17.000                             : en:00:54:17.000
  92. 01:03:01.000                             : en:01:03:01.000
  93. 01:17:15.000                             : en:01:17:15.000
  94. 01:29:12.000                             : en:01:29:12.000
  95. 01:42:21.000                             : en:01:42:21.000
  96. 01:52:17.000                             : en:01:52:17.000
  97. 02:05:37.000                             : en:02:05:37.000
  98. 02:27:34.833                             : en:02:27:34.833
复制代码

复制代码

威灵顿之线/威灵顿阵线 Lines.of.Wellington.2012.720p.BluRay.x264-FUTURiSTiC 6.59GB-2.jpg






回复

使用道具 举报

懒得打字嘛,点击右侧快捷回复 【右侧内容,后台自定义】
您需要登录后才可以回帖 登录 | 立即加入

本版积分规则

Archiver|小黑屋| 蓝光电影网 |网站地图

Copyright © 2021 Comsenz Inc. Powered by 蓝光电影网

蓝光电影网

本站内容由用户自主分享和转载自互联网,转载目的在于传递更多信息,并不代表本网赞同其观点和对其真实性负责。

如有侵权、违反国家法律政策行为,请联系我们,我们会第一时间及时清除和处理!

举报反馈邮箱:[email protected]

快速回复 返回顶部 返回列表