找回密码

蓝光电影网

查看: 816|回复: 2

[恐怖] 血唇 Lips.of.Blood.1975.720p.BluRay.x264-GHOULS 3.28GB

[复制链接]
蓝光币
623
发表于 2018-9-12 00:08:17 | 显示全部楼层 |阅读模式


◎译  名 血唇
◎片  名 Lips of blood
◎年  代 1975
◎产  地 法国
◎类  别 可骇/悬疑
◎语  言 法语
◎上映日期 1975-05-18
◎豆瓣评分 5.3/10 from 88 users
◎豆瓣链接 https://movie.douban.com/subject/1839371/
◎片  长 USA: 88 分钟/France: 71 分钟(X rated version)
◎导  演 Jean Rollin
◎主  演 Jean-Loup Philippe
      Annie Belle
      Nathalie Perrey

◎简  介

  自从父亲死后,弗莱德雷克(Jean-Loup Philippe 饰)便落空了童年的记忆,但一张挂在墙上的风光画却翻开了他记忆的大门。画上是一座建在海边的烧毁城堡,弗莱德雷克对此感应似曾了解,他逐步回忆起20年前发生的一件事,12岁的他相逢了城堡内一个身穿白衣的女子(Annie Briand 饰),并与之度过了欢畅的夜晚。
  弗莱德雷克将这段记忆告诉母亲(Natalie Perrey 饰),却遭到母亲的否认。他仍不死心,辗转找到了这张照片的拍摄者。这时代他偶然相逢了童年记忆中的女子,亦由此进入一个黑暗可骇的吸血鬼天下……

  1. Video
  2. ID                                       : 1
  3. Format                                   : AVC
  4. Format/Info                              : Advanced Video Codec
  5. Format profile                           : [url=/cdn-cgi/l/email-protection][email protected][/url]
  6. Format settings                          : CABAC / 5 Ref Frames
  7. Format settings, CABAC                   : Yes
  8. Format settings, RefFrames               : 5 frames
  9. Codec ID                                 : V_MPEG4/ISO/AVC
  10. Duration                                 : 1 h 27 min
  11. Bit rate                                 : 4 750 kb/s
  12. Width                                    : 1 200 pixels
  13. Height                                   : 720 pixels
  14. Display aspect ratio                     : 5:3
  15. Frame rate mode                          : Constant
  16. Frame rate                               : 23.976 (24000/1001) FPS
  17. Color space                              : YUV
  18. Chroma subsampling                       : 4:2:0
  19. Bit depth                                : 8 bits
  20. Scan type                                : Progressive
  21. Bits/(Pixel*Frame)                       : 0.229
  22. Stream size                              : 2.89 GiB (88%)
  23. Writing library                          : x264 core 157 r2932 303c484
  24. Encoding settings                        : cabac=1 / ref=5 / deblock=1:-3:-3 / analyse=0x3:0x133 / me=umh / subme=8 / psy=1 / psy_rd=1.00:0.00 / mixed_ref=1 / me_range=16 / chroma_me=1 / trellis=1 / 8x8dct=1 / cqm=0 / deadzone=21,11 / fast_pskip=0 / chroma_qp_offset=-2 / threads=22 / lookahead_threads=3 / sliced_threads=0 / nr=0 / decimate=1 / interlaced=0 / bluray_compat=0 / constrained_intra=0 / bframes=3 / b_pyramid=2 / b_adapt=1 / b_bias=0 / direct=3 / weightb=1 / open_gop=0 / weightp=2 / keyint=250 / keyint_min=23 / scenecut=40 / intra_refresh=0 / rc_lookahead=50 / rc=2pass / mbtree=1 / bitrate=4750 / ratetol=1.0 / qcomp=0.60 / qpmin=0 / qpmax=69 / qpstep=4 / cplxblur=20.0 / qblur=0.5 / vbv_maxrate=62500 / vbv_bufsize=78125 / nal_hrd=none / filler=0 / ip_ratio=1.40 / aq=1:1.00
  25. Default                                  : Yes
  26. Forced                                   : No

  27. Audio
  28. ID                                       : 2
  29. Format                                   : AC-3
  30. Format/Info                              : Audio Coding 3
  31. Format settings, Endianness              : Big
  32. Codec ID                                 : A_AC3
  33. Duration                                 : 1 h 26 min
  34. Bit rate mode                            : Constant
  35. Bit rate                                 : 640 kb/s
  36. Channel(s)                               : 2 channels
  37. Channel positions                        : Front: L R
  38. Sampling rate                            : 48.0 kHz
  39. Frame rate                               : 31.250 FPS (1536 SPF)
  40. Bit depth                                : 16 bits
  41. Compression mode                         : Lossy
  42. Stream size                              : 398 MiB (12%)
  43. Language                                 : French
  44. Service kind                             : Complete Main
  45. Default                                  : Yes
  46. Forced                                   : No

  47. Text
  48. ID                                       : 3
  49. Format                                   : UTF-8
  50. Codec ID                                 : S_TEXT/UTF8
  51. Codec ID/Info                            : UTF-8 Plain Text
  52. Duration                                 : 1 h 17 min
  53. Bit rate                                 : 18 b/s
  54. Count of elements                        : 361
  55. Stream size                              : 10.7 KiB (0%)
  56. Language                                 : English
  57. Default                                  : Yes
  58. Forced                                   : No

  59. Menu
  60. 00:00:00.000                             : en:00:00:00.000
  61. 00:10:48.273                             : en:00:10:48.273
  62. 00:23:47.801                             : en:00:23:47.801
  63. 00:29:14.544                             : en:00:29:14.544
  64. 00:37:01.136                             : en:00:37:01.136
  65. 00:49:13.701                             : en:00:49:13.701
  66. 00:57:12.012                             : en:00:57:12.012
  67. 01:04:05.341                             : en:01:04:05.341
  68. 01:15:37.032                             : en:01:15:37.032
复制代码

复制代码








回复

使用道具 举报

蓝光币
915
发表于 2018-9-12 10:13:34 | 显示全部楼层
似乎很好看,多谢楼主分享!
回复 支持 反对

使用道具 举报

懒得打字嘛,点击右侧快捷回复 【右侧内容,后台自定义】
您需要登录后才可以回帖 登录 | 立即加入

本版积分规则

Archiver|小黑屋| 蓝光电影网 |网站地图

Copyright © 2021 Comsenz Inc. Powered by 蓝光电影网

蓝光电影网

本站内容由用户自主分享和转载自互联网,转载目的在于传递更多信息,并不代表本网赞同其观点和对其真实性负责。

如有侵权、违反国家法律政策行为,请联系我们,我们会第一时间及时清除和处理!

举报反馈邮箱:[email protected]

快速回复 返回顶部 返回列表