找回密码

蓝光电影网

查看: 807|回复: 3

[恐怖] 德古拉之子/德库拉之子 Son.of.Dracula.1943.720p.BluRay.x264-SADPANDA 2.65GB

[复制链接]
蓝光币
623
发表于 2018-9-12 00:08:36 | 显示全部楼层 |阅读模式


◎译  名 德古拉之子/德库拉之子
◎片  名 Son of Dracula
◎年  代 1943
◎产  地 美国
◎类  别 可骇
◎语  言 英语
◎上映日期 1944-12
◎豆瓣评分 /10 from 0 users
◎豆瓣链接 https://movie.douban.com/subject/1998183/
◎片  长 80 分钟
◎导  演 罗伯特·西奥德梅克 Robert Siodmak
◎主  演 伊芙琳·安克尔斯 Evelyn Ankers
      罗伯特·佩奇 Robert Paige
      路易丝·奥尔布里顿 Louise Allbritton

◎简  介

  None

  1. Video
  2. ID                                       : 1
  3. Format                                   : AVC
  4. Format/Info                              : Advanced Video Codec
  5. Format profile                           : [url=/cdn-cgi/l/email-protection][email protected][/url]
  6. Format settings                          : CABAC / 5 Ref Frames
  7. Format settings, CABAC                   : Yes
  8. Format settings, RefFrames               : 5 frames
  9. Codec ID                                 : V_MPEG4/ISO/AVC
  10. Duration                                 : 1 h 20 min
  11. Bit rate                                 : 4 457 kb/s
  12. Width                                    : 976 pixels
  13. Height                                   : 720 pixels
  14. Display aspect ratio                     : 4:3
  15. Frame rate mode                          : Constant
  16. Frame rate                               : 23.976 (24000/1001) FPS
  17. Color space                              : YUV
  18. Chroma subsampling                       : 4:2:0
  19. Bit depth                                : 8 bits
  20. Scan type                                : Progressive
  21. Bits/(Pixel*Frame)                       : 0.265
  22. Stream size                              : 2.50 GiB (95%)
  23. Writing library                          : x264 core 155 r2901 7d0ff22
  24. Encoding settings                        : cabac=1 / ref=5 / deblock=1:-3:-3 / analyse=0x3:0x113 / me=umh / subme=8 / psy=1 / psy_rd=1.00:0.25 / mixed_ref=1 / me_range=24 / chroma_me=1 / trellis=1 / 8x8dct=1 / cqm=0 / deadzone=21,11 / fast_pskip=1 / chroma_qp_offset=-4 / threads=22 / lookahead_threads=3 / sliced_threads=0 / nr=0 / decimate=1 / interlaced=0 / bluray_compat=0 / constrained_intra=0 / bframes=3 / b_pyramid=2 / b_adapt=1 / b_bias=0 / direct=3 / weightb=1 / open_gop=0 / weightp=2 / keyint=240 / keyint_min=24 / scenecut=40 / intra_refresh=0 / rc_lookahead=50 / rc=2pass / mbtree=1 / bitrate=4457 / ratetol=1.0 / qcomp=0.60 / qpmin=0 / qpmax=69 / qpstep=4 / cplxblur=20.0 / qblur=0.5 / ip_ratio=1.40 / aq=1:0.75
  25. Default                                  : Yes
  26. Forced                                   : No

  27. Audio
  28. ID                                       : 2
  29. Format                                   : FLAC
  30. Format/Info                              : Free Lossless Audio Codec
  31. Codec ID                                 : A_FLAC
  32. Duration                                 : 1 h 20 min
  33. Bit rate mode                            : Variable
  34. Bit rate                                 : 247 kb/s
  35. Channel(s)                               : 2 channels
  36. Channel positions                        : Front: L R
  37. Sampling rate                            : 48.0 kHz
  38. Frame rate                               : 11.719 FPS (4096 SPF)
  39. Bit depth                                : 16 bits
  40. Stream size                              : 142 MiB (5%)
  41. Writing library                          : libFLAC 1.2.1 (UTC 2007-09-17)
  42. Language                                 : English
  43. Default                                  : Yes
  44. Forced                                   : No

  45. Menu
  46. 00:00:00.000                             : en:00:00:00.000
  47. 00:04:07.581                             : en:00:04:07.581
  48. 00:07:57.894                             : en:00:07:57.894
  49. 00:13:40.153                             : en:00:13:40.153
  50. 00:16:01.127                             : en:00:16:01.127
  51. 00:22:18.587                             : en:00:22:18.587
  52. 00:25:59.433                             : en:00:25:59.433
  53. 00:30:47.137                             : en:00:30:47.137
  54. 00:34:11.675                             : en:00:34:11.675
  55. 00:40:33.973                             : en:00:40:33.973
  56. 00:47:40.649                             : en:00:47:40.649
  57. 00:53:17.694                             : en:00:53:17.694
  58. 00:56:51.908                             : en:00:56:51.908
  59. 01:03:17.794                             : en:01:03:17.794
  60. 01:08:12.672                             : en:01:08:12.672
  61. 01:12:25.508                             : en:01:12:25.508
  62. 01:16:36.842                             : en:01:16:36.842
  63. 01:19:57.292                             : en:01:19:57.292
复制代码

复制代码








回复

使用道具 举报

蓝光币
296
发表于 2019-4-2 22:15:00 | 显示全部楼层
楼主发贴辛苦了,谢谢楼主分享!我觉得蓝光电影网是注册对了!
回复 支持 反对

使用道具 举报

懒得打字嘛,点击右侧快捷回复 【右侧内容,后台自定义】
您需要登录后才可以回帖 登录 | 立即加入

本版积分规则

Archiver|小黑屋| 蓝光电影网 |网站地图

Copyright © 2021 Comsenz Inc. Powered by 蓝光电影网

蓝光电影网

本站内容由用户自主分享和转载自互联网,转载目的在于传递更多信息,并不代表本网赞同其观点和对其真实性负责。

如有侵权、违反国家法律政策行为,请联系我们,我们会第一时间及时清除和处理!

举报反馈邮箱:[email protected]

快速回复 返回顶部 返回列表