找回密码

蓝光电影网

查看: 1274|回复: 3

克莉丝汀魅力/魅力姬丝汀 Christine.1983.2160p.BluRay.REMUX.HEVC.DTS-HD.MA.TrueHD.7.1.Atmos-FGT 52.95GB

[复制链接]
蓝光币
623
发表于 2018-9-12 00:14:02 | 显示全部楼层 |阅读模式

克莉丝汀魅力/魅力姬丝汀 Christine.1983.2160p.BluRay.REMUX.HEVC.DTS-HD.MA.TrueHD.7.1.Atmos-FGT 52.95GB-1.jpg
◎译  名 克莉丝汀魅力/魅力姬丝汀
◎片  名 Christine
◎年  代 1983
◎产  地 美国
◎类  别 可骇
◎语  言 英语
◎上映日期 1983-12-09
◎豆瓣评分 7.1/10 from 613 users
◎豆瓣链接 https://movie.douban.com/subject/1297421/
◎片  长 110 分钟
◎导  演 约翰·卡朋特 John Carpenter
◎主  演 基斯·戈登 Keith Gordon
      约翰·斯托克韦尔 John Stockwell
      亚历姗卓拉·保罗 Alexandra Paul
      罗伯特·普罗斯基 Robert Prosky
      哈利·戴恩·斯坦通 Harry Dean Stanton
      Christine Belford
      罗伯茨·布洛瑟姆 Roberts Blossom
      William Ostrander
      David Spielberg
      Malcolm Danare
      Steven Tash
      Stuart Charno
      凯利·普雷斯顿 Kelly Preston
      Marc Poppel
      Robert Darnell

◎简  介

  阿尼?科宁汉姆(Keith Gordon 饰)是某所高中内极不起眼的门生,他沉默寡言、木讷外向。怙恃对他没有过量关注,身旁只要女友丽(Alexandra Paul 饰)和洽哥们丹尼斯(John Stockwell 饰),再无其他朋友。
  某天,阿尼看上一辆1958年产的二手普利茅斯?复仇女神(Plymouth Fury),他立即爱上了这辆车,绝不犹豫将其买了下来。可是阿尼的举止渐突变得希奇起来,他不在关心方圆天下,而是将一切留意力都放在这辆名为“克莉丝汀”的车上。当领会到克莉丝汀的布景以后,丽和丹尼斯决议摧毁汽车,拯救阿尼。但是克莉丝汀似乎对挡在她眼前的人绝不包涵……

  1. Video
  2. ID                                       : 1
  3. Format                                   : HEVC
  4. Format/Info                              : High Efficiency Video Coding
  5. Commercial name                          : HDR10
  6. Format profile                           : Main [url=/cdn-cgi/l/email-protection][email protected][/url]@High
  7. Codec ID                                 : V_MPEGH/ISO/HEVC
  8. Duration                                 : 1 h 50 min
  9. Bit rate                                 : 53.7 Mb/s
  10. Width                                    : 3 840 pixels
  11. Height                                   : 2 160 pixels
  12. Display aspect ratio                     : 16:9
  13. Frame rate mode                          : Constant
  14. Frame rate                               : 23.976 (24000/1001) FPS
  15. Color space                              : YUV
  16. Chroma subsampling                       : 4:2:0 (Type 2)
  17. Bit depth                                : 10 bits
  18. Bits/(Pixel*Frame)                       : 0.270
  19. Stream size                              : 41.3 GiB (78%)
  20. Title                                    : Christine.1983.2160p.BluRay.REMUX.HEVC.DTS-HD.MA.TrueHD.7.1.Atmos-FGT
  21. Default                                  : Yes
  22. Forced                                   : No
  23. Color range                              : Limited
  24. Color primaries                          : BT.2020
  25. Transfer characteristics                 : PQ
  26. Matrix coefficients                      : BT.2020 non-constant
  27. Mastering display color primaries        : Display P3
  28. Mastering display luminance              : min: 0.0050 cd/m2, max: 4000 cd/m2
  29. Maximum Content Light Level              : 1951 cd/m2
  30. Maximum Frame-Average Light Level        : 701 cd/m2

  31. Audio #1
  32. ID                                       : 2
  33. Format                                   : TrueHD
  34. Format profile                           : TrueHD+Atmos / TrueHD
  35. Codec ID                                 : A_TRUEHD
  36. Duration                                 : 1 h 50 min
  37. Bit rate mode                            : Variable
  38. Bit rate                                 : 3 362 kb/s
  39. Maximum bit rate                         : 5 004 kb/s
  40. Channel(s)                               : Object Based / 8 channels
  41. Channel positions                        : Object Based / Front: L C R, Side: L R, Back: L R, LFE
  42. Sampling rate                            :  / 48.0 kHz
  43. Frame rate                               : 1 200.000 FPS (40 SPF)
  44. Compression mode                         : Lossless
  45. Stream size                              : 2.58 GiB (5%)
  46. Title                                    : Christine.1983.2160p.BluRay.REMUX.HEVC.DTS-HD.MA.TrueHD.7.1.Atmos-FGT
  47. Language                                 : English
  48. Default                                  : Yes
  49. Forced                                   : No

  50. Audio #2
  51. ID                                       : 3
  52. Format                                   : DTS
  53. Format/Info                              : Digital Theater Systems
  54. Format profile                           : MA / Core
  55. Codec ID                                 : A_DTS
  56. Duration                                 : 1 h 50 min
  57. Bit rate mode                            : Variable / Constant
  58. Bit rate                                 : 4 298 kb/s / 1 509 kb/s
  59. Channel(s)                               : 8 channels / 6 channels
  60. Channel positions                        : Front: L C R, Side: L R, Back: L R, LFE / Front: L C R, Side: L R, LFE
  61. Sampling rate                            : 48.0 kHz
  62. Frame rate                               : 93.750 FPS (512 SPF)
  63. Bit depth                                : 24 bits
  64. Compression mode                         : Lossless / Lossy
  65. Stream size                              : 3.30 GiB (6%)
  66. Title                                    : Christine.1983.2160p.BluRay.REMUX.HEVC.DTS-HD.MA.TrueHD.7.1.Atmos-FGT
  67. Language                                 : English
  68. Default                                  : No
  69. Forced                                   : No

  70. Audio #3
  71. ID                                       : 4
  72. Format                                   : AC-3
  73. Format/Info                              : Audio Coding 3
  74. Codec ID                                 : A_AC3
  75. Duration                                 : 1 h 50 min
  76. Bit rate mode                            : Constant
  77. Bit rate                                 : 640 kb/s
  78. Channel(s)                               : 6 channels
  79. Channel positions                        : Front: L C R, Side: L R, LFE
  80. Sampling rate                            : 48.0 kHz
  81. Frame rate                               : 31.250 FPS (1536 SPF)
  82. Bit depth                                : 16 bits
  83. Compression mode                         : Lossy
  84. Stream size                              : 504 MiB (1%)
  85. Title                                    : Christine.1983.2160p.BluRay.REMUX.HEVC.DTS-HD.MA.TrueHD.7.1.Atmos-FGT
  86. Language                                 : English
  87. Service kind                             : Complete Main
  88. Default                                  : No
  89. Forced                                   : No

  90. Audio #4
  91. ID                                       : 5
  92. Format                                   : DTS
  93. Format/Info                              : Digital Theater Systems
  94. Format profile                           : MA / Core
  95. Codec ID                                 : A_DTS
  96. Duration                                 : 1 h 50 min
  97. Bit rate mode                            : Variable / Constant
  98. Bit rate                                 : 1 726 kb/s / 1 509 kb/s
  99. Channel(s)                               : 2 channels
  100. Channel positions                        :  / Front: L R
  101. Sampling rate                            : 48.0 kHz
  102. Frame rate                               : 93.750 FPS (512 SPF)
  103. Bit depth                                : 16 bits
  104. Compression mode                         : Lossless / Lossy
  105. Stream size                              : 1.33 GiB (3%)
  106. Title                                    : Christine.1983.2160p.BluRay.REMUX.HEVC.DTS-HD.MA.TrueHD.7.1.Atmos-FGT
  107. Language                                 : English
  108. Default                                  : No
  109. Forced                                   : No

  110. Audio #5
  111. ID                                       : 6
  112. Format                                   : DTS
  113. Format/Info                              : Digital Theater Systems
  114. Format profile                           : MA / Core
  115. Codec ID                                 : A_DTS
  116. Duration                                 : 1 h 50 min
  117. Bit rate mode                            : Variable / Constant
  118. Bit rate                                 : 1 536 kb/s / 1 509 kb/s
  119. Channel(s)                               : 2 channels
  120. Channel positions                        : Front: L R
  121. Sampling rate                            : 48.0 kHz
  122. Frame rate                               : 93.750 FPS (512 SPF)
  123. Bit depth                                : 16 bits
  124. Compression mode                         : Lossless / Lossy
  125. Stream size                              : 1.20 GiB (2%)
  126. Title                                    : Christine.1983.2160p.BluRay.REMUX.HEVC.DTS-HD.MA.TrueHD.7.1.Atmos-FGT
  127. Language                                 : French
  128. Default                                  : No
  129. Forced                                   : No

  130. Audio #6
  131. ID                                       : 7
  132. Format                                   : DTS
  133. Format/Info                              : Digital Theater Systems
  134. Format profile                           : MA / Core
  135. Codec ID                                 : A_DTS
  136. Duration                                 : 1 h 50 min
  137. Bit rate mode                            : Variable / Constant
  138. Bit rate                                 : 1 536 kb/s / 1 509 kb/s
  139. Channel(s)                               : 2 channels
  140. Channel positions                        : Front: L R
  141. Sampling rate                            : 48.0 kHz
  142. Frame rate                               : 93.750 FPS (512 SPF)
  143. Bit depth                                : 16 bits
  144. Compression mode                         : Lossless / Lossy
  145. Stream size                              : 1.20 GiB (2%)
  146. Title                                    : Christine.1983.2160p.BluRay.REMUX.HEVC.DTS-HD.MA.TrueHD.7.1.Atmos-FGT
  147. Language                                 : German
  148. Default                                  : No
  149. Forced                                   : No

  150. Audio #7
  151. ID                                       : 8
  152. Format                                   : AC-3
  153. Format/Info                              : Audio Coding 3
  154. Codec ID                                 : A_AC3
  155. Duration                                 : 1 h 50 min
  156. Bit rate mode                            : Constant
  157. Bit rate                                 : 256 kb/s
  158. Channel(s)                               : 2 channels
  159. Channel positions                        : Front: L R
  160. Sampling rate                            : 48.0 kHz
  161. Frame rate                               : 31.250 FPS (1536 SPF)
  162. Bit depth                                : 16 bits
  163. Compression mode                         : Lossy
  164. Stream size                              : 201 MiB (0%)
  165. Title                                    : Christine.1983.2160p.BluRay.REMUX.HEVC.DTS-HD.MA.TrueHD.7.1.Atmos-FGT
  166. Language                                 : Italian
  167. Service kind                             : Complete Main
  168. Default                                  : No
  169. Forced                                   : No

  170. Audio #8
  171. ID                                       : 9
  172. Format                                   : AC-3
  173. Format/Info                              : Audio Coding 3
  174. Codec ID                                 : A_AC3
  175. Duration                                 : 1 h 50 min
  176. Bit rate mode                            : Constant
  177. Bit rate                                 : 256 kb/s
  178. Channel(s)                               : 2 channels
  179. Channel positions                        : Front: L R
  180. Sampling rate                            : 48.0 kHz
  181. Frame rate                               : 31.250 FPS (1536 SPF)
  182. Bit depth                                : 16 bits
  183. Compression mode                         : Lossy
  184. Stream size                              : 201 MiB (0%)
  185. Title                                    : Christine.1983.2160p.BluRay.REMUX.HEVC.DTS-HD.MA.TrueHD.7.1.Atmos-FGT
  186. Language                                 : Japanese
  187. Service kind                             : Complete Main
  188. Default                                  : No
  189. Forced                                   : No

  190. Audio #9
  191. ID                                       : 10
  192. Format                                   : AC-3
  193. Format/Info                              : Audio Coding 3
  194. Codec ID                                 : A_AC3
  195. Duration                                 : 1 h 50 min
  196. Bit rate mode                            : Constant
  197. Bit rate                                 : 256 kb/s
  198. Channel(s)                               : 2 channels
  199. Channel positions                        : Front: L R
  200. Sampling rate                            : 48.0 kHz
  201. Frame rate                               : 31.250 FPS (1536 SPF)
  202. Bit depth                                : 16 bits
  203. Compression mode                         : Lossy
  204. Stream size                              : 201 MiB (0%)
  205. Title                                    : Christine.1983.2160p.BluRay.REMUX.HEVC.DTS-HD.MA.TrueHD.7.1.Atmos-FGT
  206. Language                                 : Korean
  207. Service kind                             : Complete Main
  208. Default                                  : No
  209. Forced                                   : No

  210. Audio #10
  211. ID                                       : 11
  212. Format                                   : AC-3
  213. Format/Info                              : Audio Coding 3
  214. Codec ID                                 : A_AC3
  215. Duration                                 : 1 h 50 min
  216. Bit rate mode                            : Constant
  217. Bit rate                                 : 256 kb/s
  218. Channel(s)                               : 2 channels
  219. Channel positions                        : Front: L R
  220. Sampling rate                            : 48.0 kHz
  221. Frame rate                               : 31.250 FPS (1536 SPF)
  222. Bit depth                                : 16 bits
  223. Compression mode                         : Lossy
  224. Stream size                              : 201 MiB (0%)
  225. Title                                    : Christine.1983.2160p.BluRay.REMUX.HEVC.DTS-HD.MA.TrueHD.7.1.Atmos-FGT
  226. Language                                 : Portuguese
  227. Service kind                             : Complete Main
  228. Default                                  : No
  229. Forced                                   : No

  230. Audio #11
  231. ID                                       : 12
  232. Format                                   : AC-3
  233. Format/Info                              : Audio Coding 3
  234. Codec ID                                 : A_AC3
  235. Duration                                 : 1 h 50 min
  236. Bit rate mode                            : Constant
  237. Bit rate                                 : 256 kb/s
  238. Channel(s)                               : 2 channels
  239. Channel positions                        : Front: L R
  240. Sampling rate                            : 48.0 kHz
  241. Frame rate                               : 31.250 FPS (1536 SPF)
  242. Bit depth                                : 16 bits
  243. Compression mode                         : Lossy
  244. Stream size                              : 201 MiB (0%)
  245. Title                                    : Christine.1983.2160p.BluRay.REMUX.HEVC.DTS-HD.MA.TrueHD.7.1.Atmos-FGT
  246. Language                                 : Russian
  247. Service kind                             : Complete Main
  248. Default                                  : No
  249. Forced                                   : No

  250. Audio #12
  251. ID                                       : 13
  252. Format                                   : AC-3
  253. Format/Info                              : Audio Coding 3
  254. Codec ID                                 : A_AC3
  255. Duration                                 : 1 h 50 min
  256. Bit rate mode                            : Constant
  257. Bit rate                                 : 256 kb/s
  258. Channel(s)                               : 2 channels
  259. Channel positions                        : Front: L R
  260. Sampling rate                            : 48.0 kHz
  261. Frame rate                               : 31.250 FPS (1536 SPF)
  262. Bit depth                                : 16 bits
  263. Compression mode                         : Lossy
  264. Stream size                              : 201 MiB (0%)
  265. Title                                    : Christine.1983.2160p.BluRay.REMUX.HEVC.DTS-HD.MA.TrueHD.7.1.Atmos-FGT
  266. Language                                 : Spanish
  267. Service kind                             : Complete Main
  268. Default                                  : No
  269. Forced                                   : No

  270. Audio #13
  271. ID                                       : 14
  272. Format                                   : AC-3
  273. Format/Info                              : Audio Coding 3
  274. Codec ID                                 : A_AC3
  275. Duration                                 : 1 h 50 min
  276. Bit rate mode                            : Constant
  277. Bit rate                                 : 256 kb/s
  278. Channel(s)                               : 2 channels
  279. Channel positions                        : Front: L R
  280. Sampling rate                            : 48.0 kHz
  281. Frame rate                               : 31.250 FPS (1536 SPF)
  282. Bit depth                                : 16 bits
  283. Compression mode                         : Lossy
  284. Stream size                              : 201 MiB (0%)
  285. Title                                    : Christine.1983.2160p.BluRay.REMUX.HEVC.DTS-HD.MA.TrueHD.7.1.Atmos-FGT
  286. Language                                 : Spanish
  287. Service kind                             : Complete Main
  288. Default                                  : No
  289. Forced                                   : No

  290. Text #1
  291. ID                                       : 15
  292. Format                                   : PGS
  293. Muxing mode                              : zlib
  294. Codec ID                                 : S_HDMV/PGS
  295. Codec ID/Info                            : Picture based subtitle format used on BDs/HD-DVDs
  296. Duration                                 : 1 h 41 min
  297. Bit rate                                 : 21.2 kb/s
  298. Count of elements                        : 1655
  299. Stream size                              : 15.3 MiB (0%)
  300. Title                                    : English-PGS
  301. Language                                 : English
  302. Default                                  : Yes
  303. Forced                                   : No

  304. Text #2
  305. ID                                       : 16
  306. Format                                   : PGS
  307. Muxing mode                              : zlib
  308. Codec ID                                 : S_HDMV/PGS
  309. Codec ID/Info                            : Picture based subtitle format used on BDs/HD-DVDs
  310. Duration                                 : 1 h 49 min
  311. Bit rate                                 : 26.7 kb/s
  312. Count of elements                        : 2299
  313. Stream size                              : 20.8 MiB (0%)
  314. Title                                    : English-SDH-PGS
  315. Language                                 : English
  316. Default                                  : No
  317. Forced                                   : No

  318. Text #3
  319. ID                                       : 17
  320. Format                                   : PGS
  321. Muxing mode                              : zlib
  322. Codec ID                                 : S_HDMV/PGS
  323. Codec ID/Info                            : Picture based subtitle format used on BDs/HD-DVDs
  324. Duration                                 : 1 h 41 min
  325. Bit rate                                 : 21.2 kb/s
  326. Count of elements                        : 1661
  327. Stream size                              : 15.3 MiB (0%)
  328. Title                                    : English-PGS
  329. Language                                 : English
  330. Default                                  : No
  331. Forced                                   : No

  332. Text #4
  333. ID                                       : 18
  334. Format                                   : PGS
  335. Muxing mode                              : zlib
  336. Codec ID                                 : S_HDMV/PGS
  337. Codec ID/Info                            : Picture based subtitle format used on BDs/HD-DVDs
  338. Duration                                 : 1 h 49 min
  339. Bit rate                                 : 26.7 kb/s
  340. Count of elements                        : 2299
  341. Stream size                              : 20.8 MiB (0%)
  342. Title                                    : English-SDH-PGS
  343. Language                                 : English
  344. Default                                  : No
  345. Forced                                   : No

  346. Text #5
  347. ID                                       : 19
  348. Format                                   : PGS
  349. Muxing mode                              : zlib
  350. Codec ID                                 : S_HDMV/PGS
  351. Codec ID/Info                            : Picture based subtitle format used on BDs/HD-DVDs
  352. Duration                                 : 1 h 49 min
  353. Bit rate                                 : 16.5 kb/s
  354. Count of elements                        : 1689
  355. Stream size                              : 12.9 MiB (0%)
  356. Title                                    : Chinese-PGS
  357. Language                                 : Chinese
  358. Default                                  : No
  359. Forced                                   : No

  360. Text #6
  361. ID                                       : 20
  362. Format                                   : PGS
  363. Muxing mode                              : zlib
  364. Codec ID                                 : S_HDMV/PGS
  365. Codec ID/Info                            : Picture based subtitle format used on BDs/HD-DVDs
  366. Duration                                 : 1 h 45 min
  367. Bit rate                                 : 17.9 kb/s
  368. Count of elements                        : 1437
  369. Stream size                              : 13.5 MiB (0%)
  370. Title                                    : Dutch-PGS
  371. Language                                 : Dutch
  372. Default                                  : No
  373. Forced                                   : No

  374. Text #7
  375. ID                                       : 21
  376. Format                                   : PGS
  377. Muxing mode                              : zlib
  378. Codec ID                                 : S_HDMV/PGS
  379. Codec ID/Info                            : Picture based subtitle format used on BDs/HD-DVDs
  380. Duration                                 : 1 h 45 min
  381. Bit rate                                 : 19.5 kb/s
  382. Count of elements                        : 1557
  383. Stream size                              : 14.6 MiB (0%)
  384. Title                                    : Finnish-PGS
  385. Language                                 : Finnish
  386. Default                                  : No
  387. Forced                                   : No

  388. Text #8
  389. ID                                       : 22
  390. Format                                   : PGS
  391. Muxing mode                              : zlib
  392. Codec ID                                 : S_HDMV/PGS
  393. Codec ID/Info                            : Picture based subtitle format used on BDs/HD-DVDs
  394. Duration                                 : 1 h 45 min
  395. Bit rate                                 : 21.3 kb/s
  396. Count of elements                        : 1871
  397. Stream size                              : 16.0 MiB (0%)
  398. Title                                    : French-PGS
  399. Language                                 : French
  400. Default                                  : No
  401. Forced                                   : No

  402. Text #9
  403. ID                                       : 23
  404. Format                                   : PGS
  405. Muxing mode                              : zlib
  406. Codec ID                                 : S_HDMV/PGS
  407. Codec ID/Info                            : Picture based subtitle format used on BDs/HD-DVDs
  408. Duration                                 : 1 h 45 min
  409. Bit rate                                 : 22.6 kb/s
  410. Count of elements                        : 1715
  411. Stream size                              : 16.9 MiB (0%)
  412. Title                                    : German-PGS
  413. Language                                 : German
  414. Default                                  : No
  415. Forced                                   : No

  416. Text #10
  417. ID                                       : 24
  418. Format                                   : PGS
  419. Muxing mode                              : zlib
  420. Codec ID                                 : S_HDMV/PGS
  421. Codec ID/Info                            : Picture based subtitle format used on BDs/HD-DVDs
  422. Duration                                 : 1 h 48 min
  423. Bit rate                                 : 16.1 kb/s
  424. Count of elements                        : 1691
  425. Stream size                              : 12.4 MiB (0%)
  426. Title                                    : Hebrew-PGS
  427. Language                                 : Hebrew
  428. Default                                  : No
  429. Forced                                   : No

  430. Text #11
  431. ID                                       : 25
  432. Format                                   : PGS
  433. Muxing mode                              : zlib
  434. Codec ID                                 : S_HDMV/PGS
  435. Codec ID/Info                            : Picture based subtitle format used on BDs/HD-DVDs
  436. Duration                                 : 1 h 48 min
  437. Bit rate                                 : 17.8 kb/s
  438. Count of elements                        : 2191
  439. Stream size                              : 13.8 MiB (0%)
  440. Title                                    : Hindi-PGS
  441. Language                                 : Hindi
  442. Default                                  : No
  443. Forced                                   : No

  444. Text #12
  445. ID                                       : 26
  446. Format                                   : PGS
  447. Muxing mode                              : zlib
  448. Codec ID                                 : S_HDMV/PGS
  449. Codec ID/Info                            : Picture based subtitle format used on BDs/HD-DVDs
  450. Duration                                 : 1 h 45 min
  451. Bit rate                                 : 21.0 kb/s
  452. Count of elements                        : 1703
  453. Stream size                              : 15.7 MiB (0%)
  454. Title                                    : Italian-PGS
  455. Language                                 : Italian
  456. Default                                  : No
  457. Forced                                   : No

  458. Text #13
  459. ID                                       : 27
  460. Format                                   : PGS
  461. Muxing mode                              : zlib
  462. Codec ID                                 : S_HDMV/PGS
  463. Codec ID/Info                            : Picture based subtitle format used on BDs/HD-DVDs
  464. Duration                                 : 1 h 44 min
  465. Bit rate                                 : 13.8 kb/s
  466. Count of elements                        : 1483
  467. Stream size                              : 10.3 MiB (0%)
  468. Title                                    : Japanese-PGS
  469. Language                                 : Japanese
  470. Default                                  : No
  471. Forced                                   : No

  472. Text #14
  473. ID                                       : 28
  474. Format                                   : PGS
  475. Muxing mode                              : zlib
  476. Codec ID                                 : S_HDMV/PGS
  477. Codec ID/Info                            : Picture based subtitle format used on BDs/HD-DVDs
  478. Duration                                 : 1 h 45 min
  479. Bit rate                                 : 15.8 kb/s
  480. Count of elements                        : 1661
  481. Stream size                              : 12.0 MiB (0%)
  482. Title                                    : Korean-PGS
  483. Language                                 : Korean
  484. Default                                  : No
  485. Forced                                   : No

  486. Text #15
  487. ID                                       : 29
  488. Format                                   : PGS
  489. Muxing mode                              : zlib
  490. Codec ID                                 : S_HDMV/PGS
  491. Codec ID/Info                            : Picture based subtitle format used on BDs/HD-DVDs
  492. Duration                                 : 1 h 45 min
  493. Bit rate                                 : 19.6 kb/s
  494. Count of elements                        : 1697
  495. Stream size                              : 14.8 MiB (0%)
  496. Title                                    : Spanish-PGS
  497. Language                                 : Spanish
  498. Default                                  : No
  499. Forced                                   : No

  500. Text #16
  501. ID                                       : 30
  502. Format                                   : PGS
  503. Muxing mode                              : zlib
  504. Codec ID                                 : S_HDMV/PGS
  505. Codec ID/Info                            : Picture based subtitle format used on BDs/HD-DVDs
  506. Duration                                 : 1 h 45 min
  507. Bit rate                                 : 21.4 kb/s
  508. Count of elements                        : 1809
  509. Stream size                              : 16.1 MiB (0%)
  510. Title                                    : Swedish-PGS
  511. Language                                 : Swedish
  512. Default                                  : No
  513. Forced                                   : No

  514. Text #17
  515. ID                                       : 31
  516. Format                                   : PGS
  517. Muxing mode                              : zlib
  518. Codec ID                                 : S_HDMV/PGS
  519. Codec ID/Info                            : Picture based subtitle format used on BDs/HD-DVDs
  520. Duration                                 : 1 h 48 min
  521. Bit rate                                 : 18.3 kb/s
  522. Count of elements                        : 1687
  523. Stream size                              : 14.1 MiB (0%)
  524. Title                                    : Thai-PGS
  525. Language                                 : Thai
  526. Default                                  : No
  527. Forced                                   : No

  528. Text #18
  529. ID                                       : 32
  530. Format                                   : PGS
  531. Muxing mode                              : zlib
  532. Codec ID                                 : S_HDMV/PGS
  533. Codec ID/Info                            : Picture based subtitle format used on BDs/HD-DVDs
  534. Duration                                 : 1 h 31 min
  535. Bit rate                                 : 248 b/s
  536. Count of elements                        : 24
  537. Stream size                              : 166 KiB (0%)
  538. Title                                    : Japanese-FORCED-PGS
  539. Language                                 : Japanese
  540. Default                                  : No
  541. Forced                                   : No

  542. Text #19
  543. ID                                       : 33
  544. Format                                   : PGS
  545. Muxing mode                              : zlib
  546. Codec ID                                 : S_HDMV/PGS
  547. Codec ID/Info                            : Picture based subtitle format used on BDs/HD-DVDs
  548. Duration                                 : 1 h 13 min
  549. Bit rate                                 : 166 b/s
  550. Count of elements                        : 8
  551. Stream size                              : 90.0 KiB (0%)
  552. Title                                    : Russian-FORCED-PGS
  553. Language                                 : Russian
  554. Default                                  : No
  555. Forced                                   : No

  556. Menu
  557. 00:00:00.000                             : :Chapter 1
  558. 00:07:54.807                             : :Chapter 2
  559. 00:15:00.733                             : :Chapter 3
  560. 00:20:12.085                             : :Chapter 4
  561. 00:25:41.456                             : :Chapter 5
  562. 00:34:02.165                             : :Chapter 6
  563. 00:41:55.930                             : :Chapter 7
  564. 00:49:12.199                             : :Chapter 8
  565. 00:55:11.391                             : :Chapter 9
  566. 01:01:33.106                             : :Chapter 10
  567. 01:05:57.787                             : :Chapter 11
  568. 01:12:49.406                             : :Chapter 12
  569. 01:17:59.341                             : :Chapter 13
  570. 01:28:31.264                             : :Chapter 14
  571. 01:36:52.223                             : :Chapter 15
  572. 01:45:19.229                             : :Chapter 16
复制代码

复制代码

克莉丝汀魅力/魅力姬丝汀 Christine.1983.2160p.BluRay.REMUX.HEVC.DTS-HD.MA.TrueHD.7.1.Atmos-FGT 52.95GB-2.png 克莉丝汀魅力/魅力姬丝汀 Christine.1983.2160p.BluRay.REMUX.HEVC.DTS-HD.MA.TrueHD.7.1.Atmos-FGT 52.95GB-3.png 克莉丝汀魅力/魅力姬丝汀 Christine.1983.2160p.BluRay.REMUX.HEVC.DTS-HD.MA.TrueHD.7.1.Atmos-FGT 52.95GB-4.png







回复

使用道具 举报

蓝光币
674
发表于 2018-9-12 07:32:29 | 显示全部楼层
强烈支持楼主ing……
回复 支持 反对

使用道具 举报

蓝光币
1021
发表于 2018-9-12 13:23:58 | 显示全部楼层
强烈支持楼主ing……
回复 支持 反对

使用道具 举报

蓝光币
3066
发表于 2018-9-13 00:36:59 | 显示全部楼层
感恩无私的分享与奉献 :)
回复 支持 反对

使用道具 举报

懒得打字嘛,点击右侧快捷回复 【右侧内容,后台自定义】
您需要登录后才可以回帖 登录 | 立即加入

本版积分规则

Archiver|小黑屋| 蓝光电影网 |网站地图

Copyright © 2021 Comsenz Inc. Powered by 蓝光电影网

蓝光电影网

本站内容由用户自主分享和转载自互联网,转载目的在于传递更多信息,并不代表本网赞同其观点和对其真实性负责。

如有侵权、违反国家法律政策行为,请联系我们,我们会第一时间及时清除和处理!

举报反馈邮箱:[email protected]

快速回复 返回顶部 返回列表