找回密码

蓝光电影网

查看: 1492|回复: 7

黑客帝国/廿二世纪杀人网络 The.Matrix.1999.RERIP.2160p.BluRay.x265.10bit.SDR.DTS-HD.MA.TrueHD.7.1.Atmos-SWTYBLZ 58.38GB

[复制链接]
蓝光币
623
发表于 2018-9-12 00:14:24 | 显示全部楼层 |阅读模式

黑客帝国/廿二世纪杀人收集 The.Matrix.1999.RERIP.2160p.BluRay.x265.10bit.SDR.DTS-HD.MA.TrueHD.7.1.Atmos-SWTYBLZ 58.38GB-1.jpg
◎译  名 黑客帝国/廿二世纪杀人收集(港)/骇客使命(台)
◎片  名 The Matrix
◎年  代 1999
◎产  地 美国/澳大利亚
◎类  别 行动/科幻
◎语  言 英语
◎上映日期 1999-03-31(美国)
◎豆瓣评分 8.9/10 from 332,910 users
◎豆瓣链接 https://movie.douban.com/subject/1291843/
◎片  长 136分钟
◎导  演 安迪·沃卓斯基 Andy Wachowski / 拉娜·沃卓斯基 Lana Wachowski
◎主  演 基努·李维斯 Keanu Reeves
      凯瑞-安·莫斯 Carrie-Anne Moss
      劳伦斯·菲什伯恩 Laurence Fishburne
      雨果·维文 Hugo Weaving
      格洛丽亚·福斯特 Gloria Foster
      乔·潘托里亚诺 Joe Pantoliano
      马库斯·钟 Marcus Chong
      朱利安·阿拉汗加 Julian Arahanga
      马特·多兰 Matt Doran

◎简  介

  未几的未来,收集黑客尼奥(基奴李维斯 饰)对这个看似一般的现实天下发生了思疑。他结识了黑客崔妮蒂(凯莉·安·摩丝 饰),并见到了黑客构造的首领墨菲斯(劳伦斯·菲什伯恩 饰)。墨菲斯告诉他,现实天下实在是由一个名叫“母体”的计较机野生智能系统控制,人们就像他们饲养的动物,没有自在和思惟,而尼奥就是可以拯救人类的救世主。
  可是,救赎之路历来都不会风平浪静,到底那里才是实在的天下?若何才能打败那些超人一样的特勤?尼奥能否是人类的希望?这是黑客的帝国,法式和代码接待大师的到来。.

◎获奖情况

  第72届奥斯卡金像奖  (2000)
  最好剪辑 扎克·斯伯格
  最好视觉结果 加内克·西尔斯 / John Gaeta / Steve Courtley / Jon Thum
  最好音效剪辑 Dane A. Davis
  最好声响 约翰·T·赖茨 / 大卫·李 / 大卫·E·坎贝尔 / 格雷格·鲁德洛夫

  第53届英国电影学院奖  (2000)
  电影奖 最好摄影(提名) 比尔·波普
  电影奖 最好剪辑(提名) 扎克·斯伯格
  电影奖 最好艺术指导(提名) Owen Paterson
  电影奖 最好特别视觉结果 John Gaeta / Jon Thum / Steve Courtley / 加内克·西尔斯
  电影奖 最好音效 约翰·T·赖茨 / 大卫·李 / 大卫·E·坎贝尔 / Dane A. Davis / 格雷格·鲁德洛夫
  电影奖 最好音效(提名) 约翰·T·赖茨 / 大卫·李 / 大卫·E·坎贝尔 / Dane A. Davis / 格雷格·鲁德洛夫

  第23届日本电影学院奖  (2000)
  最好外语片(提名)

  1. Video
  2. ID                                       : 1
  3. Format                                   : HEVC
  4. Format/Info                              : High Efficiency Video Coding
  5. Format profile                           : Main [url=/cdn-cgi/l/email-protection][email protected][/url]@High
  6. Codec ID                                 : V_MPEGH/ISO/HEVC
  7. Duration                                 : 2 h 16 min
  8. Bit rate                                 : 52.2 Mb/s
  9. Width                                    : 3 840 pixels
  10. Height                                   : 1 600 pixels
  11. Display aspect ratio                     : 2.40:1
  12. Frame rate mode                          : Constant
  13. Frame rate                               : 23.976 (24000/1001) FPS
  14. Color space                              : YUV
  15. Chroma subsampling                       : 4:2:0
  16. Bit depth                                : 10 bits
  17. Bits/(Pixel*Frame)                       : 0.354
  18. Stream size                              : 49.7 GiB (85%)
  19. Title                                    : The.Matrix.1999.RERIP.2160p.BluRay.x265.10bit.SDR.DTS-HD.MA.TrueHD.7.1.Atmos-SWTYBLZ
  20. Writing library                          : x265 2.8+54-79c76e42cb28:[Windows][GCC 7.3.1][64 bit] 10bit
  21. Encoding settings                        : cpuid=1111039 / frame-threads=16 / numa-pools=24,24,24,24 / wpp / no-pmode / no-pme / no-psnr / no-ssim / log-level=2 / input-csp=1 / input-res=3840x1600 / interlace=0 / total-frames=0 / level-idc=51 / high-tier=1 / uhd-bd=0 / ref=3 / no-allow-non-conformance / repeat-headers / annexb / aud / hrd / info / hash=0 / no-temporal-layers / no-open-gop / min-keyint=1 / keyint=24 / gop-lookahead=0 / bframes=4 / b-adapt=2 / b-pyramid / bframe-bias=0 / rc-lookahead=25 / lookahead-slices=4 / scenecut=40 / radl=0 / no-intra-refresh / ctu=64 / min-cu-size=8 / no-rect / no-amp / max-tu-size=32 / tu-inter-depth=1 / tu-intra-depth=1 / limit-tu=0 / rdoq-level=0 / dynamic-rd=0.00 / no-ssim-rd / signhide / no-tskip / nr-intra=0 / nr-inter=0 / no-constrained-intra / strong-intra-smoothing / max-merge=2 / limit-refs=3 / no-limit-modes / me=1 / subme=2 / merange=57 / temporal-mvp / weightp / no-weightb / no-analyze-src-pics / deblock=0:0 / no-sao / no-sao-non-deblock / rd=3 / no-early-skip / rskip / no-fast-intra / no-tskip-fast / no-cu-lossless / no-b-intra / no-splitrd-skip / rdpenalty=0 / psy-rd=2.00 / psy-rdoq=0.00 / no-rd-refine / no-lossless / cbqpoffs=0 / crqpoffs=0 / rc=crf / crf=16.0 / qcomp=0.60 / qpstep=4 / stats-write=0 / stats-read=0 / vbv-maxrate=160000 / vbv-bufsize=160000 / vbv-init=0.9 / crf-max=0.0 / crf-min=0.0 / ipratio=1.40 / pbratio=1.30 / aq-mode=1 / aq-strength=1.00 / cutree / zone-count=0 / no-strict-cbr / qg-size=32 / no-rc-grain / qpmax=69 / qpmin=0 / no-const-vbv / sar=1 / overscan=0 / videoformat=5 / range=0 / colorprim=2 / transfer=2 / colormatrix=2 / chromaloc=0 / display-window=0 / max-cll=0,0 / min-luma=0 / max-luma=1023 / log2-max-poc-lsb=8 / vui-timing-info / vui-hrd-info / slices=1 / opt-qp-pps / opt-ref-list-length-pps / no-multi-pass-opt-rps / scenecut-bias=0.05 / no-opt-cu-delta-qp / no-aq-motion / no-hdr / no-hdr-opt / no-dhdr10-opt / no-idr-recovery-sei / analysis-reuse-level=5 / scale-factor=0 / refine-intra=0 / refine-inter=0 / refine-mv=0 / no-limit-sao / ctu-info=0 / no-lowpass-dct / refine-mv-type=0 / copy-pic=1 / max-ausize-factor=1.0 / no-dynamic-refine / no-single-sei
  22. Default                                  : Yes
  23. Forced                                   : No

  24. Audio #1
  25. ID                                       : 2
  26. Format                                   : TrueHD
  27. Format profile                           : TrueHD+Atmos / TrueHD
  28. Codec ID                                 : A_TRUEHD
  29. Duration                                 : 2 h 16 min
  30. Bit rate mode                            : Variable
  31. Bit rate                                 : 4 420 kb/s
  32. Maximum bit rate                         : 7 794 kb/s
  33. Channel(s)                               : Object Based / 8 channels
  34. Channel positions                        : Object Based / Front: L C R, Side: L R, Back: L R, LFE
  35. Sampling rate                            :  / 48.0 kHz
  36. Frame rate                               : 1 200.000 FPS (40 SPF)
  37. Compression mode                         : Lossless
  38. Stream size                              : 4.21 GiB (7%)
  39. Title                                    : The.Matrix.1999.RERIP.2160p.BluRay.x265.10bit.SDR.DTS-HD.MA.TrueHD.7.1.Atmos-SWTYBLZ
  40. Language                                 : English
  41. Default                                  : Yes
  42. Forced                                   : No

  43. Audio #2
  44. ID                                       : 3
  45. Format                                   : DTS
  46. Format/Info                              : Digital Theater Systems
  47. Format profile                           : MA / Core
  48. Codec ID                                 : A_DTS
  49. Duration                                 : 2 h 16 min
  50. Bit rate mode                            : Variable / Constant
  51. Bit rate                                 : 3 746 kb/s / 1 509 kb/s
  52. Channel(s)                               : 8 channels / 6 channels
  53. Channel positions                        : Front: L C R, Side: L R, Back: L R, LFE / Front: L C R, Side: L R, LFE
  54. Sampling rate                            : 48.0 kHz
  55. Frame rate                               : 93.750 FPS (512 SPF)
  56. Bit depth                                : 24 bits
  57. Compression mode                         : Lossless / Lossy
  58. Stream size                              : 3.57 GiB (6%)
  59. Title                                    : The.Matrix.1999.RERIP.2160p.BluRay.x265.10bit.SDR.DTS-HD.MA.TrueHD.7.1.Atmos-SWTYBLZ
  60. Language                                 : English
  61. Default                                  : No
  62. Forced                                   : No

  63. Audio #3
  64. ID                                       : 4
  65. Format                                   : AC-3
  66. Format/Info                              : Audio Coding 3
  67. Codec ID                                 : A_AC3
  68. Duration                                 : 2 h 16 min
  69. Bit rate mode                            : Constant
  70. Bit rate                                 : 448 kb/s
  71. Channel(s)                               : 6 channels
  72. Channel positions                        : Front: L C R, Side: L R, LFE
  73. Sampling rate                            : 48.0 kHz
  74. Frame rate                               : 31.250 FPS (1536 SPF)
  75. Bit depth                                : 16 bits
  76. Compression mode                         : Lossy
  77. Stream size                              : 437 MiB (1%)
  78. Title                                    : The.Matrix.1999.RERIP.2160p.BluRay.x265.10bit.SDR.DTS-HD.MA.TrueHD.7.1.Atmos-SWTYBLZ
  79. Language                                 : English
  80. Service kind                             : Complete Main
  81. Default                                  : No
  82. Forced                                   : No

  83. Text #1
  84. ID                                       : 5
  85. Format                                   : UTF-8
  86. Codec ID                                 : S_TEXT/UTF8
  87. Codec ID/Info                            : UTF-8 Plain Text
  88. Duration                                 : 2 h 7 min
  89. Bit rate                                 : 40 b/s
  90. Count of elements                        : 1342
  91. Stream size                              : 37.8 KiB (0%)
  92. Title                                    : English-SRT
  93. Language                                 : English
  94. Default                                  : Yes
  95. Forced                                   : No

  96. Text #2
  97. ID                                       : 6
  98. Format                                   : PGS
  99. Muxing mode                              : zlib
  100. Codec ID                                 : S_HDMV/PGS
  101. Codec ID/Info                            : Picture based subtitle format used on BDs/HD-DVDs
  102. Duration                                 : 2 h 15 min
  103. Bit rate                                 : 21.3 kb/s
  104. Count of elements                        : 2746
  105. Stream size                              : 20.6 MiB (0%)
  106. Title                                    : English-PGS
  107. Language                                 : English
  108. Default                                  : No
  109. Forced                                   : No

  110. Text #3
  111. ID                                       : 7
  112. Format                                   : PGS
  113. Muxing mode                              : zlib
  114. Codec ID                                 : S_HDMV/PGS
  115. Codec ID/Info                            : Picture based subtitle format used on BDs/HD-DVDs
  116. Duration                                 : 2 h 15 min
  117. Bit rate                                 : 22.3 kb/s
  118. Count of elements                        : 2844
  119. Stream size                              : 21.6 MiB (0%)
  120. Title                                    : German-PGS
  121. Language                                 : German
  122. Default                                  : No
  123. Forced                                   : No

  124. Text #4
  125. ID                                       : 8
  126. Format                                   : PGS
  127. Muxing mode                              : zlib
  128. Codec ID                                 : S_HDMV/PGS
  129. Codec ID/Info                            : Picture based subtitle format used on BDs/HD-DVDs
  130. Duration                                 : 2 h 7 min
  131. Bit rate                                 : 17.7 kb/s
  132. Count of elements                        : 2477
  133. Stream size                              : 16.2 MiB (0%)
  134. Title                                    : Japanese-PGS
  135. Language                                 : Japanese
  136. Default                                  : No
  137. Forced                                   : No

  138. Text #5
  139. ID                                       : 9
  140. Format                                   : PGS
  141. Muxing mode                              : zlib
  142. Codec ID                                 : S_HDMV/PGS
  143. Codec ID/Info                            : Picture based subtitle format used on BDs/HD-DVDs
  144. Duration                                 : 2 h 15 min
  145. Bit rate                                 : 20.6 kb/s
  146. Count of elements                        : 2702
  147. Stream size                              : 20.0 MiB (0%)
  148. Title                                    : Italian-PGS
  149. Language                                 : Italian
  150. Default                                  : No
  151. Forced                                   : No

  152. Text #6
  153. ID                                       : 10
  154. Format                                   : PGS
  155. Muxing mode                              : zlib
  156. Codec ID                                 : S_HDMV/PGS
  157. Codec ID/Info                            : Picture based subtitle format used on BDs/HD-DVDs
  158. Duration                                 : 2 h 15 min
  159. Bit rate                                 : 18.9 kb/s
  160. Count of elements                        : 2660
  161. Stream size                              : 18.4 MiB (0%)
  162. Title                                    : Spanish-PGS
  163. Language                                 : Spanish
  164. Default                                  : No
  165. Forced                                   : No

  166. Text #7
  167. ID                                       : 11
  168. Format                                   : PGS
  169. Muxing mode                              : zlib
  170. Codec ID                                 : S_HDMV/PGS
  171. Codec ID/Info                            : Picture based subtitle format used on BDs/HD-DVDs
  172. Duration                                 : 2 h 15 min
  173. Bit rate                                 : 17.2 kb/s
  174. Count of elements                        : 2620
  175. Stream size                              : 16.7 MiB (0%)
  176. Title                                    : Chinese-PGS
  177. Language                                 : Chinese
  178. Default                                  : No
  179. Forced                                   : No

  180. Text #8
  181. ID                                       : 12
  182. Format                                   : PGS
  183. Muxing mode                              : zlib
  184. Codec ID                                 : S_HDMV/PGS
  185. Codec ID/Info                            : Picture based subtitle format used on BDs/HD-DVDs
  186. Duration                                 : 2 h 15 min
  187. Bit rate                                 : 14.1 kb/s
  188. Count of elements                        : 2600
  189. Stream size                              : 13.7 MiB (0%)
  190. Title                                    : Korean-PGS
  191. Language                                 : Korean
  192. Default                                  : No
  193. Forced                                   : No

  194. Text #9
  195. ID                                       : 13
  196. Format                                   : PGS
  197. Muxing mode                              : zlib
  198. Codec ID                                 : S_HDMV/PGS
  199. Codec ID/Info                            : Picture based subtitle format used on BDs/HD-DVDs
  200. Duration                                 : 2 h 15 min
  201. Bit rate                                 : 20.5 kb/s
  202. Count of elements                        : 2606
  203. Stream size                              : 19.9 MiB (0%)
  204. Title                                    : Portuguese-PGS
  205. Language                                 : Portuguese
  206. Default                                  : No
  207. Forced                                   : No

  208. Text #10
  209. ID                                       : 14
  210. Format                                   : PGS
  211. Muxing mode                              : zlib
  212. Codec ID                                 : S_HDMV/PGS
  213. Codec ID/Info                            : Picture based subtitle format used on BDs/HD-DVDs
  214. Duration                                 : 2 h 15 min
  215. Bit rate                                 : 10.3 kb/s
  216. Count of elements                        : 2764
  217. Stream size                              : 9.95 MiB (0%)
  218. Title                                    : Arabic-PGS
  219. Language                                 : Arabic
  220. Default                                  : No
  221. Forced                                   : No

  222. Text #11
  223. ID                                       : 15
  224. Format                                   : PGS
  225. Muxing mode                              : zlib
  226. Codec ID                                 : S_HDMV/PGS
  227. Codec ID/Info                            : Picture based subtitle format used on BDs/HD-DVDs
  228. Duration                                 : 2 h 15 min
  229. Bit rate                                 : 18.7 kb/s
  230. Count of elements                        : 2774
  231. Stream size                              : 18.1 MiB (0%)
  232. Title                                    : Croatian-PGS
  233. Language                                 : Croatian
  234. Default                                  : No
  235. Forced                                   : No

  236. Text #12
  237. ID                                       : 16
  238. Format                                   : PGS
  239. Muxing mode                              : zlib
  240. Codec ID                                 : S_HDMV/PGS
  241. Codec ID/Info                            : Picture based subtitle format used on BDs/HD-DVDs
  242. Duration                                 : 2 h 15 min
  243. Bit rate                                 : 16.6 kb/s
  244. Count of elements                        : 2730
  245. Stream size                              : 16.0 MiB (0%)
  246. Title                                    : Czech-PGS
  247. Language                                 : Czech
  248. Default                                  : No
  249. Forced                                   : No

  250. Text #13
  251. ID                                       : 17
  252. Format                                   : PGS
  253. Muxing mode                              : zlib
  254. Codec ID                                 : S_HDMV/PGS
  255. Codec ID/Info                            : Picture based subtitle format used on BDs/HD-DVDs
  256. Duration                                 : 2 h 15 min
  257. Bit rate                                 : 18.6 kb/s
  258. Count of elements                        : 1844
  259. Stream size                              : 18.0 MiB (0%)
  260. Title                                    : Danish-PGS
  261. Language                                 : Danish
  262. Default                                  : No
  263. Forced                                   : No

  264. Text #14
  265. ID                                       : 18
  266. Format                                   : PGS
  267. Muxing mode                              : zlib
  268. Codec ID                                 : S_HDMV/PGS
  269. Codec ID/Info                            : Picture based subtitle format used on BDs/HD-DVDs
  270. Duration                                 : 2 h 15 min
  271. Bit rate                                 : 18.1 kb/s
  272. Count of elements                        : 1658
  273. Stream size                              : 17.6 MiB (0%)
  274. Title                                    : Finnish-PGS
  275. Language                                 : Finnish
  276. Default                                  : No
  277. Forced                                   : No

  278. Text #15
  279. ID                                       : 19
  280. Format                                   : PGS
  281. Muxing mode                              : zlib
  282. Codec ID                                 : S_HDMV/PGS
  283. Codec ID/Info                            : Picture based subtitle format used on BDs/HD-DVDs
  284. Duration                                 : 2 h 15 min
  285. Bit rate                                 : 19.2 kb/s
  286. Count of elements                        : 2382
  287. Stream size                              : 18.6 MiB (0%)
  288. Title                                    : Greek-PGS
  289. Language                                 : Greek
  290. Default                                  : No
  291. Forced                                   : No

  292. Text #16
  293. ID                                       : 20
  294. Format                                   : PGS
  295. Muxing mode                              : zlib
  296. Codec ID                                 : S_HDMV/PGS
  297. Codec ID/Info                            : Picture based subtitle format used on BDs/HD-DVDs
  298. Duration                                 : 2 h 15 min
  299. Bit rate                                 : 20.0 kb/s
  300. Count of elements                        : 1984
  301. Stream size                              : 19.3 MiB (0%)
  302. Title                                    : Norwegian-PGS
  303. Language                                 : Norwegian
  304. Default                                  : No
  305. Forced                                   : No

  306. Text #17
  307. ID                                       : 21
  308. Format                                   : PGS
  309. Muxing mode                              : zlib
  310. Codec ID                                 : S_HDMV/PGS
  311. Codec ID/Info                            : Picture based subtitle format used on BDs/HD-DVDs
  312. Duration                                 : 2 h 15 min
  313. Bit rate                                 : 18.2 kb/s
  314. Count of elements                        : 2774
  315. Stream size                              : 17.7 MiB (0%)
  316. Title                                    : Hungarian-PGS
  317. Language                                 : Hungarian
  318. Default                                  : No
  319. Forced                                   : No

  320. Text #18
  321. ID                                       : 22
  322. Format                                   : PGS
  323. Muxing mode                              : zlib
  324. Codec ID                                 : S_HDMV/PGS
  325. Codec ID/Info                            : Picture based subtitle format used on BDs/HD-DVDs
  326. Duration                                 : 2 h 15 min
  327. Bit rate                                 : 16.1 kb/s
  328. Count of elements                        : 2770
  329. Stream size                              : 15.6 MiB (0%)
  330. Title                                    : Polish-PGS
  331. Language                                 : Polish
  332. Default                                  : No
  333. Forced                                   : No

  334. Text #19
  335. ID                                       : 23
  336. Format                                   : PGS
  337. Muxing mode                              : zlib
  338. Codec ID                                 : S_HDMV/PGS
  339. Codec ID/Info                            : Picture based subtitle format used on BDs/HD-DVDs
  340. Duration                                 : 2 h 15 min
  341. Bit rate                                 : 21.7 kb/s
  342. Count of elements                        : 2644
  343. Stream size                              : 21.1 MiB (0%)
  344. Title                                    : Portuguese-PGS
  345. Language                                 : Portuguese
  346. Default                                  : No
  347. Forced                                   : No

  348. Text #20
  349. ID                                       : 24
  350. Format                                   : PGS
  351. Muxing mode                              : zlib
  352. Codec ID                                 : S_HDMV/PGS
  353. Codec ID/Info                            : Picture based subtitle format used on BDs/HD-DVDs
  354. Duration                                 : 2 h 7 min
  355. Bit rate                                 : 263 b/s
  356. Count of elements                        : 42
  357. Stream size                              : 246 KiB (0%)
  358. Title                                    : Hungarian-PGS
  359. Language                                 : Hungarian
  360. Default                                  : No
  361. Forced                                   : No

  362. Text #21
  363. ID                                       : 25
  364. Format                                   : PGS
  365. Muxing mode                              : zlib
  366. Codec ID                                 : S_HDMV/PGS
  367. Codec ID/Info                            : Picture based subtitle format used on BDs/HD-DVDs
  368. Duration                                 : 2 h 15 min
  369. Bit rate                                 : 18.3 kb/s
  370. Count of elements                        : 2736
  371. Stream size                              : 17.7 MiB (0%)
  372. Title                                    : Romanian-PGS
  373. Language                                 : Romanian
  374. Default                                  : No
  375. Forced                                   : No

  376. Text #22
  377. ID                                       : 26
  378. Format                                   : PGS
  379. Muxing mode                              : zlib
  380. Codec ID                                 : S_HDMV/PGS
  381. Codec ID/Info                            : Picture based subtitle format used on BDs/HD-DVDs
  382. Duration                                 : 2 h 15 min
  383. Bit rate                                 : 20.6 kb/s
  384. Count of elements                        : 2734
  385. Stream size                              : 20.0 MiB (0%)
  386. Title                                    : Russian-PGS
  387. Language                                 : Russian
  388. Default                                  : No
  389. Forced                                   : No

  390. Text #23
  391. ID                                       : 27
  392. Format                                   : PGS
  393. Muxing mode                              : zlib
  394. Codec ID                                 : S_HDMV/PGS
  395. Codec ID/Info                            : Picture based subtitle format used on BDs/HD-DVDs
  396. Duration                                 : 2 h 15 min
  397. Bit rate                                 : 17.7 kb/s
  398. Count of elements                        : 1740
  399. Stream size                              : 17.2 MiB (0%)
  400. Title                                    : Swedish-PGS
  401. Language                                 : Swedish
  402. Default                                  : No
  403. Forced                                   : No

  404. Text #24
  405. ID                                       : 28
  406. Format                                   : PGS
  407. Muxing mode                              : zlib
  408. Codec ID                                 : S_HDMV/PGS
  409. Codec ID/Info                            : Picture based subtitle format used on BDs/HD-DVDs
  410. Duration                                 : 2 h 15 min
  411. Bit rate                                 : 20.5 kb/s
  412. Count of elements                        : 2604
  413. Stream size                              : 19.9 MiB (0%)
  414. Title                                    : Thai-PGS
  415. Language                                 : Thai
  416. Default                                  : No
  417. Forced                                   : No

  418. Text #25
  419. ID                                       : 29
  420. Format                                   : PGS
  421. Muxing mode                              : zlib
  422. Codec ID                                 : S_HDMV/PGS
  423. Codec ID/Info                            : Picture based subtitle format used on BDs/HD-DVDs
  424. Duration                                 : 2 h 15 min
  425. Bit rate                                 : 19.4 kb/s
  426. Count of elements                        : 2730
  427. Stream size                              : 18.8 MiB (0%)
  428. Title                                    : Turkish-PGS
  429. Language                                 : Turkish
  430. Default                                  : No
  431. Forced                                   : No

  432. Text #26
  433. ID                                       : 30
  434. Format                                   : PGS
  435. Muxing mode                              : zlib
  436. Codec ID                                 : S_HDMV/PGS
  437. Codec ID/Info                            : Picture based subtitle format used on BDs/HD-DVDs
  438. Duration                                 : 2 h 15 min
  439. Bit rate                                 : 205 b/s
  440. Count of elements                        : 36
  441. Stream size                              : 204 KiB (0%)
  442. Title                                    : Czech-PGS
  443. Language                                 : Czech
  444. Default                                  : No
  445. Forced                                   : No

  446. Text #27
  447. ID                                       : 31
  448. Format                                   : PGS
  449. Muxing mode                              : zlib
  450. Codec ID                                 : S_HDMV/PGS
  451. Codec ID/Info                            : Picture based subtitle format used on BDs/HD-DVDs
  452. Duration                                 : 2 h 15 min
  453. Bit rate                                 : 272 b/s
  454. Count of elements                        : 44
  455. Stream size                              : 270 KiB (0%)
  456. Title                                    : Turkish-PGS
  457. Language                                 : Turkish
  458. Default                                  : No
  459. Forced                                   : No

  460. Menu
  461. 00:00:00.000                             : en:Chapter 1
  462. 00:03:25.788                             : en:Chapter 2
  463. 00:06:35.645                             : en:Chapter 3
  464. 00:09:42.665                             : en:Chapter 4
  465. 00:11:58.300                             : en:Chapter 5
  466. 00:16:47.423                             : en:Chapter 6
  467. 00:21:33.542                             : en:Chapter 7
  468. 00:25:08.590                             : en:Chapter 8
  469. 00:28:51.146                             : en:Chapter 9
  470. 00:32:25.193                             : en:Chapter 10
  471. 00:35:21.869                             : en:Chapter 11
  472. 00:38:40.901                             : en:Chapter 12
  473. 00:44:22.576                             : en:Chapter 13
  474. 00:46:33.540                             : en:Chapter 14
  475. 00:48:57.851                             : en:Chapter 15
  476. 00:53:31.291                             : en:Chapter 16
  477. 00:56:32.138                             : en:Chapter 17
  478. 00:59:01.287                             : en:Chapter 18
  479. 01:01:08.581                             : en:Chapter 19
  480. 01:05:16.495                             : en:Chapter 20
  481. 01:07:46.812                             : en:Chapter 21
  482. 01:12:33.432                             : en:Chapter 22
  483. 01:17:49.581                             : en:Chapter 23
  484. 01:21:03.108                             : en:Chapter 24
  485. 01:25:05.350                             : en:Chapter 25
  486. 01:29:45.129                             : en:Chapter 26
  487. 01:31:27.565                             : en:Chapter 27
  488. 01:37:25.256                             : en:Chapter 28
  489. 01:41:04.975                             : en:Chapter 29
  490. 01:44:20.337                             : en:Chapter 30
  491. 01:47:00.497                             : en:Chapter 31
  492. 01:50:18.528                             : en:Chapter 32
  493. 01:52:56.686                             : en:Chapter 33
  494. 01:56:36.906                             : en:Chapter 34
  495. 01:58:49.372                             : en:Chapter 35
  496. 02:02:27.423                             : en:Chapter 36
  497. 02:05:41.784                             : en:Chapter 37
  498. 02:08:46.802                             : en:Chapter 38
复制代码

复制代码

黑客帝国/廿二世纪杀人收集 The.Matrix.1999.RERIP.2160p.BluRay.x265.10bit.SDR.DTS-HD.MA.TrueHD.7.1.Atmos-SWTYBLZ 58.38GB-2.png 黑客帝国/廿二世纪杀人收集 The.Matrix.1999.RERIP.2160p.BluRay.x265.10bit.SDR.DTS-HD.MA.TrueHD.7.1.Atmos-SWTYBLZ 58.38GB-3.png 黑客帝国/廿二世纪杀人收集 The.Matrix.1999.RERIP.2160p.BluRay.x265.10bit.SDR.DTS-HD.MA.TrueHD.7.1.Atmos-SWTYBLZ 58.38GB-4.png 黑客帝国/廿二世纪杀人收集 The.Matrix.1999.RERIP.2160p.BluRay.x265.10bit.SDR.DTS-HD.MA.TrueHD.7.1.Atmos-SWTYBLZ 58.38GB-5.png 黑客帝国/廿二世纪杀人收集 The.Matrix.1999.RERIP.2160p.BluRay.x265.10bit.SDR.DTS-HD.MA.TrueHD.7.1.Atmos-SWTYBLZ 58.38GB-6.png 黑客帝国/廿二世纪杀人收集 The.Matrix.1999.RERIP.2160p.BluRay.x265.10bit.SDR.DTS-HD.MA.TrueHD.7.1.Atmos-SWTYBLZ 58.38GB-7.png 黑客帝国/廿二世纪杀人收集 The.Matrix.1999.RERIP.2160p.BluRay.x265.10bit.SDR.DTS-HD.MA.TrueHD.7.1.Atmos-SWTYBLZ 58.38GB-8.png







回复

使用道具 举报

蓝光币
326
发表于 2018-9-13 21:02:33 | 显示全部楼层
看到这帖子真是高兴!
回复 支持 反对

使用道具 举报

蓝光币
1323
发表于 2018-9-13 21:57:26 | 显示全部楼层
激动人心,无法言表!:):)
回复 支持 反对

使用道具 举报

蓝光币
3066
发表于 2018-9-14 00:38:52 | 显示全部楼层
感恩无私的分享与奉献 :)
回复 支持 反对

使用道具 举报

懒得打字嘛,点击右侧快捷回复 【右侧内容,后台自定义】
您需要登录后才可以回帖 登录 | 立即加入

本版积分规则

Archiver|小黑屋| 蓝光电影网 |网站地图

Copyright © 2021 Comsenz Inc. Powered by 蓝光电影网

蓝光电影网

本站内容由用户自主分享和转载自互联网,转载目的在于传递更多信息,并不代表本网赞同其观点和对其真实性负责。

如有侵权、违反国家法律政策行为,请联系我们,我们会第一时间及时清除和处理!

举报反馈邮箱:[email protected]

快速回复 返回顶部 返回列表