找回密码

蓝光电影网

查看: 1328|回复: 5

超人总动员/超人特攻队 The.Incredibles.2004.RERIP.2160p.BluRay.x265.10bit.SDR.TrueHD.7.1.Atmos-SWTYBLZ 20.06GB

[复制链接]
蓝光币
623
发表于 2018-9-12 00:15:37 | 显示全部楼层 |阅读模式

超人总带动/超人特攻队 The.Incredibles.2004.RERIP.2160p.BluRay.x265.10bit.SDR.TrueHD.7.1.Atmos-SWTYBLZ 20.06GB-1.jpg
◎译  名 超人总带动/超人特攻队/超人家属/超人奸细队
◎片  名 The Incredibles
◎年  代 2004
◎产  地 美国
◎类  别 笑剧/行动/动画/冒险
◎语  言 英语/西班牙语/法语
◎上映日期 2004-11-05(美国)/2005-01-28(中国大陆)
◎豆瓣评分 8.0/10 from 157,623 users
◎豆瓣链接 https://movie.douban.com/subject/1291577/
◎片  长 115分钟
◎导  演 布拉德·伯德 Brad Bird
◎主  演 格雷格·T·尼尔森 Craig T. Nelson
      霍利·亨特 Holly Hunter
      塞缪尔·杰克逊 Samuel L. Jackson
      杰森·李 Jason Lee
      泰迪·牛顿 Teddy Newton
      华莱士·肖恩 1040504

◎简  介

  鲍勃是一个超人奸细,他劝善扬善,深受街坊邻里的爱戴。“不成思议”师长就是他的名誉绰号。他和另一个超人奸细“弹力女超人”相爱,两人成婚后过上安静的生活。
  15年曩昔了,鲍勃已经像普通人一样生活,当上了保险公司的理赔员。但是他心中还是有着技痒之时。当他晓得有发现家要展开进犯超人奸细队、扑灭人类的计划,鲍勃终究抑制不住了。他要重出江湖,拯救人类保护地球。但中年的超人已经脑满肠肥,他和仇敌的斗争布满了悬念。鲍勃的妻子也跟丈夫一路投入到这场艰难的战争中。

◎获奖情况

  第77届奥斯卡金像奖  (2005)
  最好原创剧本(提名) 布拉德·伯德
  最好动画长片 布拉德·伯德
  最好混音(提名) 兰迪·汤姆 / Doc Kane / 加里·利佐
  最好音效剪辑 兰迪·汤姆 / 迈克尔·席维斯

  第62届金球奖  (2005)
  电影类 最好音乐/笑剧片(提名)

  第32届动画安妮奖  (2005)
  最好动画长片
  最好导演 布拉德·伯德
  最好编剧 布拉德·伯德
  最好配音 布拉德·伯德
  最好配音(提名) 塞缪尔·杰克逊
  最好配乐 迈克·吉亚奇诺
  最好配乐(提名) 迈克·吉亚奇诺
  最好分镜 Kevin O'Brien
  最好分镜(提名) Ted Mathot
  最好艺术指导 卢·罗曼诺
  最好动画脚色 安格斯·麦克莱恩
  最好动画脚色(提名) 约翰·凯世 / 彼得·宋 / Kureha Yokoo
  最好脚色设想 托尼·弗希勒
  最好脚色设想(提名) 泰迪·牛顿
  最好动画结果 Martin Nguyen

  第14届MTV电影奖  (2005)
  MTV电影奖 年度电影(提名)
  MTV电影奖 最好银幕组合(提名) 格雷格·T·尼尔森 / Spencer Fox / 霍利·亨特 / 莎拉·沃威尔

  第5届美国电影学会奖  (2004)
  年度佳片

  1. Video
  2. ID                                       : 1
  3. Format                                   : HEVC
  4. Format/Info                              : High Efficiency Video Coding
  5. Format profile                           : Main [url=/cdn-cgi/l/email-protection][email protected][/url]@High
  6. Codec ID                                 : V_MPEGH/ISO/HEVC
  7. Duration                                 : 1 h 55 min
  8. Bit rate                                 : 16.7 Mb/s
  9. Width                                    : 3 840 pixels
  10. Height                                   : 1 606 pixels
  11. Display aspect ratio                     : 2.40:1
  12. Frame rate mode                          : Constant
  13. Frame rate                               : 23.976 (24000/1001) FPS
  14. Color space                              : YUV
  15. Chroma subsampling                       : 4:2:0
  16. Bit depth                                : 10 bits
  17. Bits/(Pixel*Frame)                       : 0.113
  18. Stream size                              : 13.4 GiB (67%)
  19. Title                                    : The.Incredibles.2004.RERIP.2160p.BluRay.x265.10bit.SDR.TrueHD.7.1.Atmos-SWTYBLZ
  20. Writing library                          : x265 2.8+54-79c76e42cb28:[Windows][GCC 7.3.1][64 bit] 10bit
  21. Encoding settings                        : cpuid=1111039 / frame-threads=16 / numa-pools=20 / wpp / no-pmode / no-pme / no-psnr / no-ssim / log-level=2 / input-csp=1 / input-res=3840x1606 / interlace=0 / total-frames=0 / level-idc=51 / high-tier=1 / uhd-bd=0 / ref=3 / no-allow-non-conformance / repeat-headers / annexb / aud / hrd / info / hash=0 / no-temporal-layers / no-open-gop / min-keyint=1 / keyint=24 / gop-lookahead=0 / bframes=4 / b-adapt=2 / b-pyramid / bframe-bias=0 / rc-lookahead=25 / lookahead-slices=4 / scenecut=40 / radl=0 / no-intra-refresh / ctu=64 / min-cu-size=8 / no-rect / no-amp / max-tu-size=32 / tu-inter-depth=1 / tu-intra-depth=1 / limit-tu=0 / rdoq-level=0 / dynamic-rd=0.00 / no-ssim-rd / signhide / no-tskip / nr-intra=0 / nr-inter=0 / no-constrained-intra / strong-intra-smoothing / max-merge=2 / limit-refs=3 / no-limit-modes / me=1 / subme=2 / merange=57 / temporal-mvp / weightp / no-weightb / no-analyze-src-pics / deblock=0:0 / no-sao / no-sao-non-deblock / rd=3 / no-early-skip / rskip / no-fast-intra / no-tskip-fast / no-cu-lossless / no-b-intra / no-splitrd-skip / rdpenalty=0 / psy-rd=2.00 / psy-rdoq=0.00 / no-rd-refine / no-lossless / cbqpoffs=0 / crqpoffs=0 / rc=crf / crf=16.0 / qcomp=0.60 / qpstep=4 / stats-write=0 / stats-read=0 / vbv-maxrate=160000 / vbv-bufsize=160000 / vbv-init=0.9 / crf-max=0.0 / crf-min=0.0 / ipratio=1.40 / pbratio=1.30 / aq-mode=1 / aq-strength=1.00 / cutree / zone-count=0 / no-strict-cbr / qg-size=32 / no-rc-grain / qpmax=69 / qpmin=0 / no-const-vbv / sar=1 / overscan=0 / videoformat=5 / range=0 / colorprim=2 / transfer=2 / colormatrix=2 / chromaloc=0 / display-window=0 / max-cll=0,0 / min-luma=0 / max-luma=1023 / log2-max-poc-lsb=8 / vui-timing-info / vui-hrd-info / slices=1 / opt-qp-pps / opt-ref-list-length-pps / no-multi-pass-opt-rps / scenecut-bias=0.05 / no-opt-cu-delta-qp / no-aq-motion / no-hdr / no-hdr-opt / no-dhdr10-opt / no-idr-recovery-sei / analysis-reuse-level=5 / scale-factor=0 / refine-intra=0 / refine-inter=0 / refine-mv=0 / no-limit-sao / ctu-info=0 / no-lowpass-dct / refine-mv-type=0 / copy-pic=1 / max-ausize-factor=1.0 / no-dynamic-refine / no-single-sei
  22. Default                                  : Yes
  23. Forced                                   : No

  24. Audio #1
  25. ID                                       : 2
  26. Format                                   : TrueHD
  27. Format profile                           : TrueHD+Atmos / TrueHD
  28. Codec ID                                 : A_TRUEHD
  29. Duration                                 : 1 h 55 min
  30. Bit rate mode                            : Variable
  31. Bit rate                                 : 7 354 kb/s
  32. Maximum bit rate                         : 7 071 kb/s
  33. Channel(s)                               : Object Based / 8 channels
  34. Channel positions                        : Object Based / Front: L C R, Side: L R, Back: L R, LFE
  35. Sampling rate                            :  / 48.0 kHz
  36. Frame rate                               : 1 200.000 FPS (40 SPF)
  37. Compression mode                         : Lossless
  38. Stream size                              : 5.92 GiB (30%)
  39. Title                                    : The.Incredibles.2004.RERIP.2160p.BluRay.x265.10bit.SDR.TrueHD.7.1.Atmos-SWTYBLZ
  40. Language                                 : English
  41. Default                                  : Yes
  42. Forced                                   : No

  43. Audio #2
  44. ID                                       : 3
  45. Format                                   : AC-3
  46. Format/Info                              : Audio Coding 3
  47. Codec ID                                 : A_AC3
  48. Duration                                 : 1 h 55 min
  49. Bit rate mode                            : Constant
  50. Bit rate                                 : 640 kb/s
  51. Channel(s)                               : 6 channels
  52. Channel positions                        : Front: L C R, Side: L R, LFE
  53. Sampling rate                            : 48.0 kHz
  54. Frame rate                               : 31.250 FPS (1536 SPF)
  55. Bit depth                                : 16 bits
  56. Compression mode                         : Lossy
  57. Stream size                              : 528 MiB (3%)
  58. Title                                    : The.Incredibles.2004.RERIP.2160p.BluRay.x265.10bit.SDR.TrueHD.7.1.Atmos-SWTYBLZ
  59. Language                                 : English
  60. Service kind                             : Complete Main
  61. Default                                  : No
  62. Forced                                   : No

  63. Text #1
  64. ID                                       : 4
  65. Format                                   : UTF-8
  66. Codec ID                                 : S_TEXT/UTF8
  67. Codec ID/Info                            : UTF-8 Plain Text
  68. Duration                                 : 1 h 46 min
  69. Bit rate                                 : 59 b/s
  70. Count of elements                        : 1210
  71. Stream size                              : 46.7 KiB (0%)
  72. Title                                    : English-SRT
  73. Language                                 : English
  74. Default                                  : Yes
  75. Forced                                   : No

  76. Text #2
  77. ID                                       : 5
  78. Format                                   : UTF-8
  79. Codec ID                                 : S_TEXT/UTF8
  80. Codec ID/Info                            : UTF-8 Plain Text
  81. Duration                                 : 1 h 47 min
  82. Bit rate                                 : 64 b/s
  83. Count of elements                        : 1329
  84. Stream size                              : 50.3 KiB (0%)
  85. Title                                    : English-SDH-SRT
  86. Language                                 : English
  87. Default                                  : No
  88. Forced                                   : No

  89. Text #3
  90. ID                                       : 6
  91. Format                                   : PGS
  92. Muxing mode                              : zlib
  93. Codec ID                                 : S_HDMV/PGS
  94. Codec ID/Info                            : Picture based subtitle format used on BDs/HD-DVDs
  95. Duration                                 : 1 h 49 min
  96. Bit rate                                 : 39.0 kb/s
  97. Count of elements                        : 2668
  98. Stream size                              : 30.7 MiB (0%)
  99. Title                                    : English-PGS
  100. Language                                 : English
  101. Default                                  : No
  102. Forced                                   : No

  103. Text #4
  104. ID                                       : 7
  105. Format                                   : PGS
  106. Muxing mode                              : zlib
  107. Codec ID                                 : S_HDMV/PGS
  108. Codec ID/Info                            : Picture based subtitle format used on BDs/HD-DVDs
  109. Duration                                 : 1 h 49 min
  110. Bit rate                                 : 37.1 kb/s
  111. Count of elements                        : 2414
  112. Stream size                              : 29.1 MiB (0%)
  113. Title                                    : French-PGS
  114. Language                                 : French
  115. Default                                  : No
  116. Forced                                   : No

  117. Text #5
  118. ID                                       : 8
  119. Format                                   : PGS
  120. Muxing mode                              : zlib
  121. Codec ID                                 : S_HDMV/PGS
  122. Codec ID/Info                            : Picture based subtitle format used on BDs/HD-DVDs
  123. Duration                                 : 1 h 49 min
  124. Bit rate                                 : 36.2 kb/s
  125. Count of elements                        : 2394
  126. Stream size                              : 28.4 MiB (0%)
  127. Title                                    : Spanish-PGS
  128. Language                                 : Spanish
  129. Default                                  : No
  130. Forced                                   : No

  131. Menu
  132. 00:00:00.000                             : en:00:00:00.000
  133. 00:09:15.388                             : en:00:09:15.388
  134. 00:11:33.568                             : en:00:11:33.568
  135. 00:13:32.186                             : en:00:13:32.186
  136. 00:17:09.362                             : en:00:17:09.362
  137. 00:20:45.744                             : en:00:20:45.744
  138. 00:26:54.363                             : en:00:26:54.363
  139. 00:30:43.049                             : en:00:30:43.049
  140. 00:34:55.427                             : en:00:34:55.427
  141. 00:41:28.069                             : en:00:41:28.069
  142. 00:46:02.510                             : en:00:46:02.510
  143. 00:48:55.349                             : en:00:48:55.349
  144. 00:50:02.958                             : en:00:50:02.958
  145. 00:54:02.614                             : en:00:54:02.614
  146. 00:57:10.385                             : en:00:57:10.385
  147. 01:00:36.633                             : en:01:00:36.633
  148. 01:05:05.693                             : en:01:05:05.693
  149. 01:10:54.542                             : en:01:10:54.542
  150. 01:12:58.749                             : en:01:12:58.749
  151. 01:16:28.417                             : en:01:16:28.417
  152. 01:19:20.047                             : en:01:19:20.047
  153. 01:21:14.745                             : en:01:21:14.745
  154. 01:24:00.494                             : en:01:24:00.494
  155. 01:27:06.471                             : en:01:27:06.471
  156. 01:30:30.675                             : en:01:30:30.675
  157. 01:32:48.229                             : en:01:32:48.229
  158. 01:33:33.858                             : en:01:33:33.858
  159. 01:34:31.374                             : en:01:34:31.374
  160. 01:37:03.985                             : en:01:37:03.985
  161. 01:41:58.904                             : en:01:41:58.904
  162. 01:45:40.834                             : en:01:45:40.834
  163. 01:47:34.156                             : en:01:47:34.156
复制代码

复制代码

超人总带动/超人特攻队 The.Incredibles.2004.RERIP.2160p.BluRay.x265.10bit.SDR.TrueHD.7.1.Atmos-SWTYBLZ 20.06GB-2.png 超人总带动/超人特攻队 The.Incredibles.2004.RERIP.2160p.BluRay.x265.10bit.SDR.TrueHD.7.1.Atmos-SWTYBLZ 20.06GB-3.png 超人总带动/超人特攻队 The.Incredibles.2004.RERIP.2160p.BluRay.x265.10bit.SDR.TrueHD.7.1.Atmos-SWTYBLZ 20.06GB-4.png 超人总带动/超人特攻队 The.Incredibles.2004.RERIP.2160p.BluRay.x265.10bit.SDR.TrueHD.7.1.Atmos-SWTYBLZ 20.06GB-5.png 超人总带动/超人特攻队 The.Incredibles.2004.RERIP.2160p.BluRay.x265.10bit.SDR.TrueHD.7.1.Atmos-SWTYBLZ 20.06GB-6.png 超人总带动/超人特攻队 The.Incredibles.2004.RERIP.2160p.BluRay.x265.10bit.SDR.TrueHD.7.1.Atmos-SWTYBLZ 20.06GB-7.png 超人总带动/超人特攻队 The.Incredibles.2004.RERIP.2160p.BluRay.x265.10bit.SDR.TrueHD.7.1.Atmos-SWTYBLZ 20.06GB-8.png







回复

使用道具 举报

懒得打字嘛,点击右侧快捷回复 【右侧内容,后台自定义】
您需要登录后才可以回帖 登录 | 立即加入

本版积分规则

Archiver|小黑屋| 蓝光电影网 |网站地图

Copyright © 2021 Comsenz Inc. Powered by 蓝光电影网

蓝光电影网

本站内容由用户自主分享和转载自互联网,转载目的在于传递更多信息,并不代表本网赞同其观点和对其真实性负责。

如有侵权、违反国家法律政策行为,请联系我们,我们会第一时间及时清除和处理!

举报反馈邮箱:[email protected]

快速回复 返回顶部 返回列表