找回密码

蓝光电影网

查看: 2119|回复: 3

超人总动员/超人特攻队 The.Incredibles.2004.RERIP.2160p.BluRay.x264.8bit.SDR.TrueHD.7.1.Atmos-SWTYBLZ 13.96GB

[复制链接]
蓝光币
623
发表于 2018-9-12 00:16:49 | 显示全部楼层 |阅读模式

超人总带动/超人特攻队 The.Incredibles.2004.RERIP.2160p.BluRay.x264.8bit.SDR.TrueHD.7.1.Atmos-SWTYBLZ 13.96GB-1.jpg
◎译  名 超人总带动/超人特攻队/超人家属/超人奸细队
◎片  名 The Incredibles
◎年  代 2004
◎产  地 美国
◎类  别 笑剧/行动/动画/冒险
◎语  言 英语/西班牙语/法语
◎上映日期 2004-11-05(美国)/2005-01-28(中国大陆)
◎豆瓣评分 8.0/10 from 157,623 users
◎豆瓣链接 https://movie.douban.com/subject/1291577/
◎片  长 115分钟
◎导  演 布拉德·伯德 Brad Bird
◎主  演 格雷格·T·尼尔森 Craig T. Nelson
      霍利·亨特 Holly Hunter
      塞缪尔·杰克逊 Samuel L. Jackson
      杰森·李 Jason Lee
      泰迪·牛顿 Teddy Newton
      华莱士·肖恩 1040504

◎简  介

  鲍勃是一个超人奸细,他劝善扬善,深受街坊邻里的爱戴。“不成思议”师长就是他的名誉绰号。他和另一个超人奸细“弹力女超人”相爱,两人成婚后过上安静的生活。
  15年曩昔了,鲍勃已经像普通人一样生活,当上了保险公司的理赔员。但是他心中还是有着技痒之时。当他晓得有发现家要展开进犯超人奸细队、扑灭人类的计划,鲍勃终究抑制不住了。他要重出江湖,拯救人类保护地球。但中年的超人已经脑满肠肥,他和仇敌的斗争布满了悬念。鲍勃的妻子也跟丈夫一路投入到这场艰难的战争中。

◎获奖情况

  第77届奥斯卡金像奖  (2005)
  最好原创剧本(提名) 布拉德·伯德
  最好动画长片 布拉德·伯德
  最好混音(提名) 兰迪·汤姆 / Doc Kane / 加里·利佐
  最好音效剪辑 兰迪·汤姆 / 迈克尔·席维斯

  第62届金球奖  (2005)
  电影类 最好音乐/笑剧片(提名)

  第32届动画安妮奖  (2005)
  最好动画长片
  最好导演 布拉德·伯德
  最好编剧 布拉德·伯德
  最好配音 布拉德·伯德
  最好配音(提名) 塞缪尔·杰克逊
  最好配乐 迈克·吉亚奇诺
  最好配乐(提名) 迈克·吉亚奇诺
  最好分镜 Kevin O'Brien
  最好分镜(提名) Ted Mathot
  最好艺术指导 卢·罗曼诺
  最好动画脚色 安格斯·麦克莱恩
  最好动画脚色(提名) 约翰·凯世 / 彼得·宋 / Kureha Yokoo
  最好脚色设想 托尼·弗希勒
  最好脚色设想(提名) 泰迪·牛顿
  最好动画结果 Martin Nguyen

  第14届MTV电影奖  (2005)
  MTV电影奖 年度电影(提名)
  MTV电影奖 最好银幕组合(提名) 格雷格·T·尼尔森 / Spencer Fox / 霍利·亨特 / 莎拉·沃威尔

  第5届美国电影学会奖  (2004)
  年度佳片

  1. Video
  2. ID                                       : 1
  3. Format                                   : AVC
  4. Format/Info                              : Advanced Video Codec
  5. Format profile                           : [url=/cdn-cgi/l/email-protection][email protected][/url]
  6. Format settings                          : CABAC / 7 Ref Frames
  7. Format settings, CABAC                   : Yes
  8. Format settings, RefFrames               : 7 frames
  9. Codec ID                                 : V_MPEG4/ISO/AVC
  10. Duration                                 : 1 h 55 min
  11. Bit rate                                 : 9 154 kb/s
  12. Width                                    : 3 840 pixels
  13. Height                                   : 1 606 pixels
  14. Display aspect ratio                     : 2.40:1
  15. Frame rate mode                          : Constant
  16. Frame rate                               : 23.976 (24000/1001) FPS
  17. Color space                              : YUV
  18. Chroma subsampling                       : 4:2:0
  19. Bit depth                                : 8 bits
  20. Scan type                                : Progressive
  21. Bits/(Pixel*Frame)                       : 0.062
  22. Stream size                              : 7.37 GiB (53%)
  23. Title                                    : The.Incredibles.2004.RERIP.2160p.BluRay.x264.8bit.SDR.TrueHD.7.1.Atmos-SWTYBLZ
  24. Writing library                          : x264 core 155 r2901 7d0ff22
  25. Encoding settings                        : cabac=1 / ref=7 / deblock=1:1:1 / analyse=0x3:0x113 / me=umh / subme=10 / psy=1 / psy_rd=0.40:0.00 / mixed_ref=1 / me_range=48 / chroma_me=1 / trellis=2 / 8x8dct=1 / cqm=0 / deadzone=21,11 / fast_pskip=1 / chroma_qp_offset=-2 / threads=36 / lookahead_threads=4 / sliced_threads=0 / nr=0 / decimate=0 / interlaced=0 / bluray_compat=0 / constrained_intra=0 / bframes=5 / b_pyramid=2 / b_adapt=2 / b_bias=0 / direct=3 / weightb=1 / open_gop=0 / weightp=2 / keyint=250 / keyint_min=23 / scenecut=40 / intra_refresh=0 / rc_lookahead=50 / rc=crf / mbtree=1 / crf=18.0 / qcomp=0.60 / qpmin=0 / qpmax=69 / qpstep=4 / ip_ratio=1.40 / aq=1:0.60
  26. Default                                  : Yes
  27. Forced                                   : No

  28. Audio #1
  29. ID                                       : 2
  30. Format                                   : TrueHD
  31. Format profile                           : TrueHD+Atmos / TrueHD
  32. Codec ID                                 : A_TRUEHD
  33. Duration                                 : 1 h 55 min
  34. Bit rate mode                            : Variable
  35. Bit rate                                 : 7 354 kb/s
  36. Maximum bit rate                         : 7 071 kb/s
  37. Channel(s)                               : Object Based / 8 channels
  38. Channel positions                        : Object Based / Front: L C R, Side: L R, Back: L R, LFE
  39. Sampling rate                            :  / 48.0 kHz
  40. Frame rate                               : 1 200.000 FPS (40 SPF)
  41. Compression mode                         : Lossless
  42. Stream size                              : 5.92 GiB (43%)
  43. Title                                    : The.Incredibles.2004.RERIP.2160p.BluRay.x264.8bit.SDR.TrueHD.7.1.Atmos-SWTYBLZ
  44. Language                                 : English
  45. Default                                  : Yes
  46. Forced                                   : No

  47. Audio #2
  48. ID                                       : 3
  49. Format                                   : AC-3
  50. Format/Info                              : Audio Coding 3
  51. Codec ID                                 : A_AC3
  52. Duration                                 : 1 h 55 min
  53. Bit rate mode                            : Constant
  54. Bit rate                                 : 640 kb/s
  55. Channel(s)                               : 6 channels
  56. Channel positions                        : Front: L C R, Side: L R, LFE
  57. Sampling rate                            : 48.0 kHz
  58. Frame rate                               : 31.250 FPS (1536 SPF)
  59. Bit depth                                : 16 bits
  60. Compression mode                         : Lossy
  61. Stream size                              : 528 MiB (4%)
  62. Title                                    : The.Incredibles.2004.RERIP.2160p.BluRay.x264.8bit.SDR.TrueHD.7.1.Atmos-SWTYBLZ
  63. Language                                 : English
  64. Service kind                             : Complete Main
  65. Default                                  : No
  66. Forced                                   : No

  67. Text #1
  68. ID                                       : 4
  69. Format                                   : UTF-8
  70. Codec ID                                 : S_TEXT/UTF8
  71. Codec ID/Info                            : UTF-8 Plain Text
  72. Duration                                 : 1 h 46 min
  73. Bit rate                                 : 59 b/s
  74. Count of elements                        : 1210
  75. Stream size                              : 46.7 KiB (0%)
  76. Title                                    : English-SRT
  77. Language                                 : English
  78. Default                                  : Yes
  79. Forced                                   : No

  80. Text #2
  81. ID                                       : 5
  82. Format                                   : UTF-8
  83. Codec ID                                 : S_TEXT/UTF8
  84. Codec ID/Info                            : UTF-8 Plain Text
  85. Duration                                 : 1 h 47 min
  86. Bit rate                                 : 64 b/s
  87. Count of elements                        : 1329
  88. Stream size                              : 50.3 KiB (0%)
  89. Title                                    : English-SDH-SRT
  90. Language                                 : English
  91. Default                                  : No
  92. Forced                                   : No

  93. Text #3
  94. ID                                       : 6
  95. Format                                   : PGS
  96. Muxing mode                              : zlib
  97. Codec ID                                 : S_HDMV/PGS
  98. Codec ID/Info                            : Picture based subtitle format used on BDs/HD-DVDs
  99. Duration                                 : 1 h 49 min
  100. Bit rate                                 : 39.0 kb/s
  101. Count of elements                        : 2668
  102. Stream size                              : 30.7 MiB (0%)
  103. Title                                    : English-PGS
  104. Language                                 : English
  105. Default                                  : No
  106. Forced                                   : No

  107. Text #4
  108. ID                                       : 7
  109. Format                                   : PGS
  110. Muxing mode                              : zlib
  111. Codec ID                                 : S_HDMV/PGS
  112. Codec ID/Info                            : Picture based subtitle format used on BDs/HD-DVDs
  113. Duration                                 : 1 h 49 min
  114. Bit rate                                 : 37.1 kb/s
  115. Count of elements                        : 2414
  116. Stream size                              : 29.1 MiB (0%)
  117. Title                                    : French-PGS
  118. Language                                 : French
  119. Default                                  : No
  120. Forced                                   : No

  121. Text #5
  122. ID                                       : 8
  123. Format                                   : PGS
  124. Muxing mode                              : zlib
  125. Codec ID                                 : S_HDMV/PGS
  126. Codec ID/Info                            : Picture based subtitle format used on BDs/HD-DVDs
  127. Duration                                 : 1 h 49 min
  128. Bit rate                                 : 36.2 kb/s
  129. Count of elements                        : 2394
  130. Stream size                              : 28.4 MiB (0%)
  131. Title                                    : Spanish-PGS
  132. Language                                 : Spanish
  133. Default                                  : No
  134. Forced                                   : No

  135. Menu
  136. 00:00:00.000                             : en:00:00:00.000
  137. 00:09:15.388                             : en:00:09:15.388
  138. 00:11:33.568                             : en:00:11:33.568
  139. 00:13:32.186                             : en:00:13:32.186
  140. 00:17:09.362                             : en:00:17:09.362
  141. 00:20:45.744                             : en:00:20:45.744
  142. 00:26:54.363                             : en:00:26:54.363
  143. 00:30:43.049                             : en:00:30:43.049
  144. 00:34:55.427                             : en:00:34:55.427
  145. 00:41:28.069                             : en:00:41:28.069
  146. 00:46:02.510                             : en:00:46:02.510
  147. 00:48:55.349                             : en:00:48:55.349
  148. 00:50:02.958                             : en:00:50:02.958
  149. 00:54:02.614                             : en:00:54:02.614
  150. 00:57:10.385                             : en:00:57:10.385
  151. 01:00:36.633                             : en:01:00:36.633
  152. 01:05:05.693                             : en:01:05:05.693
  153. 01:10:54.542                             : en:01:10:54.542
  154. 01:12:58.749                             : en:01:12:58.749
  155. 01:16:28.417                             : en:01:16:28.417
  156. 01:19:20.047                             : en:01:19:20.047
  157. 01:21:14.745                             : en:01:21:14.745
  158. 01:24:00.494                             : en:01:24:00.494
  159. 01:27:06.471                             : en:01:27:06.471
  160. 01:30:30.675                             : en:01:30:30.675
  161. 01:32:48.229                             : en:01:32:48.229
  162. 01:33:33.858                             : en:01:33:33.858
  163. 01:34:31.374                             : en:01:34:31.374
  164. 01:37:03.985                             : en:01:37:03.985
  165. 01:41:58.904                             : en:01:41:58.904
  166. 01:45:40.834                             : en:01:45:40.834
  167. 01:47:34.156                             : en:01:47:34.156
复制代码

复制代码

超人总带动/超人特攻队 The.Incredibles.2004.RERIP.2160p.BluRay.x264.8bit.SDR.TrueHD.7.1.Atmos-SWTYBLZ 13.96GB-2.png 超人总带动/超人特攻队 The.Incredibles.2004.RERIP.2160p.BluRay.x264.8bit.SDR.TrueHD.7.1.Atmos-SWTYBLZ 13.96GB-3.png 超人总带动/超人特攻队 The.Incredibles.2004.RERIP.2160p.BluRay.x264.8bit.SDR.TrueHD.7.1.Atmos-SWTYBLZ 13.96GB-4.png 超人总带动/超人特攻队 The.Incredibles.2004.RERIP.2160p.BluRay.x264.8bit.SDR.TrueHD.7.1.Atmos-SWTYBLZ 13.96GB-5.png 超人总带动/超人特攻队 The.Incredibles.2004.RERIP.2160p.BluRay.x264.8bit.SDR.TrueHD.7.1.Atmos-SWTYBLZ 13.96GB-6.png 超人总带动/超人特攻队 The.Incredibles.2004.RERIP.2160p.BluRay.x264.8bit.SDR.TrueHD.7.1.Atmos-SWTYBLZ 13.96GB-7.png 超人总带动/超人特攻队 The.Incredibles.2004.RERIP.2160p.BluRay.x264.8bit.SDR.TrueHD.7.1.Atmos-SWTYBLZ 13.96GB-8.png






回复

使用道具 举报

蓝光币
327
发表于 2018-9-12 09:24:47 | 显示全部楼层
强烈支持楼主ing……
回复 支持 反对

使用道具 举报

蓝光币
327
发表于 2018-9-13 07:44:56 | 显示全部楼层
强烈支持楼主ing……
回复 支持 反对

使用道具 举报

蓝光币
3738
发表于 2018-10-27 19:23:51 | 显示全部楼层
谢谢楼主分享
回复 支持 反对

使用道具 举报

懒得打字嘛,点击右侧快捷回复 【右侧内容,后台自定义】
您需要登录后才可以回帖 登录 | 立即加入

本版积分规则

Archiver|小黑屋| 蓝光电影网 |网站地图

Copyright © 2021 Comsenz Inc. Powered by 蓝光电影网

蓝光电影网

本站内容由用户自主分享和转载自互联网,转载目的在于传递更多信息,并不代表本网赞同其观点和对其真实性负责。

如有侵权、违反国家法律政策行为,请联系我们,我们会第一时间及时清除和处理!

举报反馈邮箱:[email protected]

快速回复 返回顶部 返回列表