找回密码

蓝光电影网

查看: 2207|回复: 2

[科幻] 侏罗纪世界2/侏罗纪世界:殒落国度 Jurassic.World.Fallen.Kingdom.2018.1080p.BluRay.REMUX.AVC.DTS-X.7.1-FGT 32.96GB

[复制链接]
蓝光币
623
发表于 2018-9-12 00:18:53 | 显示全部楼层 |阅读模式

侏罗纪天下2/侏罗纪天下:殒落国家 Jurassic.World.Fallen.Kingdom.2018.1080p.BluRay.REMUX.AVC.DTS-X.7.1-FGT 32.96GB-1.jpg
◎译  名 侏罗纪天下2/侏罗纪天下:殒落国家(台)/侏罗纪天下:丢失国家(港)/侏罗纪天下2:失落王国/侏罗纪天下2:出错王国/侏罗纪公园5
◎片  名 Jurassic World: Fallen Kingdom
◎年  代 2018
◎产  地 美国/西班牙
◎类  别 行动/科幻/冒险
◎语  言 英语
◎上映日期 2018-06-15(中国大陆)/2018-06-22(美国)
◎豆瓣评分 6.8/10 from 191,064 users
◎豆瓣链接 https://movie.douban.com/subject/26416062/
◎片  长 128分钟
◎导  演 胡安·安东尼奥·巴亚纳 Juan Antonio Bayona
◎主  演 克里斯·帕拉特 Chris Pratt
      布莱丝·达拉斯·霍华德 Bryce Dallas Howard
      贾斯蒂斯·史姑娘 Justice Smith
      伊莎贝拉·瑟蒙 1394999
      拉菲·斯波 Rafe Spall
      托比·琼斯 Toby Jones
      泰德·拉文 Ted Levine
      詹姆斯·克伦威尔 James Cromwell
      黄荣亮 B.D. Wong
      丹妮艾拉·皮内达 Daniella Pineda
      杰拉丁·卓别林 Geraldine Chaplin
      杰夫·高布伦 Jeff Goldblum
      卡米尔·雷米泽斯基 Kamil Lemieszewski
      丹尼尔·斯蒂森 Daniel Stisen
      皮特·杰森 Peter Jason
      迈克尔·帕帕约翰 Michael Papajohn
      罗伯特·埃姆斯 Robert Emms
      罗南·萨莫尔斯 Ronan Summers
      麦克斯·贝克 Max Baker
      丹尼尔·厄根 Daniel Eghan
      戴维·奥拉瓦莱·阿印德 David Olawale Ayinde

◎简  介

  自侏罗纪天下的骚乱以来,品种繁多的恐龙在努布拉岛度过了三年自在自在的时光。但是该岛火山活动频仍,随时有喷发的危险。努力于恐龙庇护的克莱尔·戴宁(布莱丝·达拉斯·霍华德 Bryce Dallas Howard 饰)遭到班杰明?洛克伍德的约请。班杰明及其部属伊莱·米尔斯(拉菲·斯波 Rafe Spall 饰)希望她和相关技术职员前往努布拉岛拯救那边的恐龙,并将它们安置在新的栖息地。遭到传染的克莱尔想法找来欧文(克里斯·帕拉特 Chris Pratt 饰)一同前往,欧文则希望救出他亲手驯养的迅猛龙小蓝。当他们踏足这座隔断之岛时,却发现工作没那末简单。
  火山捋臂张拳,随时爆发,而紊乱当中丑陋的诡计悄悄酝酿……

  1. Video
  2. ID                                       : 1
  3. Format                                   : AVC
  4. Format/Info                              : Advanced Video Codec
  5. Format profile                           : [url=/cdn-cgi/l/email-protection][email protected][/url]
  6. Format settings                          : CABAC / 4 Ref Frames
  7. Format settings, CABAC                   : Yes
  8. Format settings, ReFrames                : 4 frames
  9. Codec ID                                 : V_MPEG4/ISO/AVC
  10. Duration                                 : 2 h 8 min
  11. Bit rate mode                            : Variable
  12. Bit rate                                 : 23.9 Mb/s
  13. Maximum bit rate                         : 28.0 Mb/s
  14. Width                                    : 1 920 pixels
  15. Height                                   : 1 080 pixels
  16. Display aspect ratio                     : 16:9
  17. Frame rate mode                          : Constant
  18. Frame rate                               : 23.976 (24000/1001) FPS
  19. Color space                              : YUV
  20. Chroma subsampling                       : 4:2:0
  21. Bit depth                                : 8 bits
  22. Scan type                                : Progressive
  23. Bits/(Pixel*Frame)                       : 0.481
  24. Stream size                              : 21.4 GiB (65%)
  25. Title                                    : Jurassic.World.Fallen.Kingdom.2018.1080p.BluRay.REMUX.AVC.DTS-X.7.1-FGT
  26. Language                                 : English
  27. Default                                  : No
  28. Forced                                   : No

  29. Audio #1
  30. ID                                       : 2
  31. Format                                   : DTS
  32. Format/Info                              : Digital Theater Systems
  33. Format profile                           : X / MA / Core
  34. Codec ID                                 : A_DTS
  35. Duration                                 : 2 h 8 min
  36. Bit rate mode                            : Variable / Variable / Constant
  37. Bit rate                                 : 4 231 kb/s / 4 231 kb/s / 1 509 kb/s
  38. Channel(s)                               : Object Based / 8 channels / 6 channels
  39. Channel positions                        : Object Based / Front: L C R, Side: L R, Back: L R, LFE / Front: L C R, Side: L R, LFE
  40. Sampling rate                            :  / 48.0 kHz / 48.0 kHz
  41. Frame rate                               : 93.750 FPS (512 SPF)
  42. Bit depth                                :  / 24 bits / 24 bits
  43. Compression mode                         :  / Lossless / Lossy
  44. Stream size                              : 3.79 GiB (12%)
  45. Title                                    : Jurassic.World.Fallen.Kingdom.2018.1080p.BluRay.REMUX.AVC.DTS-X.7.1-FGT
  46. Language                                 : English
  47. Default                                  : Yes
  48. Forced                                   : No

  49. Audio #2
  50. ID                                       : 3
  51. Format                                   : DTS
  52. Format/Info                              : Digital Theater Systems
  53. Codec ID                                 : A_DTS
  54. Duration                                 : 2 h 8 min
  55. Bit rate mode                            : Constant
  56. Bit rate                                 : 1 509 kb/s
  57. Channel(s)                               : 6 channels
  58. Channel positions                        : Front: L C R, Side: L R, LFE
  59. Sampling rate                            : 48.0 kHz
  60. Frame rate                               : 93.750 FPS (512 SPF)
  61. Bit depth                                : 24 bits
  62. Compression mode                         : Lossy
  63. Stream size                              : 1.35 GiB (4%)
  64. Title                                    : Jurassic.World.Fallen.Kingdom.2018.1080p.BluRay.REMUX.AVC.DTS-X.7.1-FGT
  65. Language                                 : English
  66. Default                                  : No
  67. Forced                                   : No

  68. Audio #3
  69. ID                                       : 4
  70. Format                                   : DTS
  71. Format/Info                              : Digital Theater Systems
  72. Format profile                           : HRA / Core
  73. Codec ID                                 : A_DTS
  74. Duration                                 : 2 h 8 min
  75. Bit rate mode                            : Constant
  76. Bit rate                                 : 2 046 kb/s / 1 509 kb/s
  77. Channel(s)                               : 8 channels / 6 channels
  78. Channel positions                        : Front: L C R, Side: L R, Back: L R, LFE / Front: L C R, Side: L R, LFE
  79. Sampling rate                            : 48.0 kHz
  80. Frame rate                               : 93.750 FPS (512 SPF)
  81. Bit depth                                : 24 bits
  82. Compression mode                         : Lossy
  83. Stream size                              : 1.83 GiB (6%)
  84. Title                                    : Jurassic.World.Fallen.Kingdom.2018.1080p.BluRay.REMUX.AVC.DTS-X.7.1-FGT
  85. Language                                 : Spanish
  86. Default                                  : No
  87. Forced                                   : No

  88. Audio #4
  89. ID                                       : 5
  90. Format                                   : DTS
  91. Format/Info                              : Digital Theater Systems
  92. Codec ID                                 : A_DTS
  93. Duration                                 : 2 h 8 min
  94. Bit rate mode                            : Constant
  95. Bit rate                                 : 1 509 kb/s
  96. Channel(s)                               : 6 channels
  97. Channel positions                        : Front: L C R, Side: L R, LFE
  98. Sampling rate                            : 48.0 kHz
  99. Frame rate                               : 93.750 FPS (512 SPF)
  100. Bit depth                                : 24 bits
  101. Compression mode                         : Lossy
  102. Stream size                              : 1.35 GiB (4%)
  103. Title                                    : Jurassic.World.Fallen.Kingdom.2018.1080p.BluRay.REMUX.AVC.DTS-X.7.1-FGT
  104. Language                                 : Spanish
  105. Default                                  : No
  106. Forced                                   : No

  107. Audio #5
  108. ID                                       : 6
  109. Format                                   : DTS
  110. Format/Info                              : Digital Theater Systems
  111. Format profile                           : HRA / Core
  112. Codec ID                                 : A_DTS
  113. Duration                                 : 2 h 8 min
  114. Bit rate mode                            : Constant
  115. Bit rate                                 : 2 046 kb/s / 1 509 kb/s
  116. Channel(s)                               : 8 channels / 6 channels
  117. Channel positions                        : Front: L C R, Side: L R, Back: L R, LFE / Front: L C R, Side: L R, LFE
  118. Sampling rate                            : 48.0 kHz
  119. Frame rate                               : 93.750 FPS (512 SPF)
  120. Bit depth                                : 24 bits
  121. Compression mode                         : Lossy
  122. Stream size                              : 1.83 GiB (6%)
  123. Title                                    : Jurassic.World.Fallen.Kingdom.2018.1080p.BluRay.REMUX.AVC.DTS-X.7.1-FGT
  124. Language                                 : French
  125. Default                                  : No
  126. Forced                                   : No

  127. Audio #6
  128. ID                                       : 7
  129. Format                                   : DTS
  130. Format/Info                              : Digital Theater Systems
  131. Codec ID                                 : A_DTS
  132. Duration                                 : 2 h 8 min
  133. Bit rate mode                            : Constant
  134. Bit rate                                 : 1 509 kb/s
  135. Channel(s)                               : 6 channels
  136. Channel positions                        : Front: L C R, Side: L R, LFE
  137. Sampling rate                            : 48.0 kHz
  138. Frame rate                               : 93.750 FPS (512 SPF)
  139. Bit depth                                : 24 bits
  140. Compression mode                         : Lossy
  141. Stream size                              : 1.35 GiB (4%)
  142. Title                                    : Jurassic.World.Fallen.Kingdom.2018.1080p.BluRay.REMUX.AVC.DTS-X.7.1-FGT
  143. Language                                 : French
  144. Default                                  : No
  145. Forced                                   : No

  146. Text #1
  147. ID                                       : 8
  148. Format                                   : PGS
  149. Muxing mode                              : zlib
  150. Codec ID                                 : S_HDMV/PGS
  151. Codec ID/Info                            : Picture based subtitle format used on BDs/HD-DVDs
  152. Duration                                 : 2 h 7 min
  153. Bit rate                                 : 35.3 kb/s
  154. Count of elements                        : 3541
  155. Stream size                              : 32.1 MiB (0%)
  156. Title                                    : English-PGS
  157. Language                                 : English
  158. Default                                  : Yes
  159. Forced                                   : No

  160. Text #2
  161. ID                                       : 9
  162. Format                                   : PGS
  163. Muxing mode                              : zlib
  164. Codec ID                                 : S_HDMV/PGS
  165. Codec ID/Info                            : Picture based subtitle format used on BDs/HD-DVDs
  166. Duration                                 : 2 h 6 min
  167. Bit rate                                 : 25.1 kb/s
  168. Count of elements                        : 2590
  169. Stream size                              : 22.7 MiB (0%)
  170. Title                                    : Spanish-PGS
  171. Language                                 : Spanish
  172. Default                                  : No
  173. Forced                                   : No

  174. Text #3
  175. ID                                       : 10
  176. Format                                   : PGS
  177. Muxing mode                              : zlib
  178. Codec ID                                 : S_HDMV/PGS
  179. Codec ID/Info                            : Picture based subtitle format used on BDs/HD-DVDs
  180. Duration                                 : 2 h 6 min
  181. Bit rate                                 : 23.6 kb/s
  182. Count of elements                        : 2592
  183. Stream size                              : 21.4 MiB (0%)
  184. Title                                    : French-PGS
  185. Language                                 : French
  186. Default                                  : No
  187. Forced                                   : No

  188. Text #4
  189. ID                                       : 11
  190. Format                                   : PGS
  191. Muxing mode                              : zlib
  192. Codec ID                                 : S_HDMV/PGS
  193. Codec ID/Info                            : Picture based subtitle format used on BDs/HD-DVDs
  194. Duration                                 : 2 h 6 min
  195. Bit rate                                 : 195 b/s
  196. Count of elements                        : 20
  197. Stream size                              : 181 KiB (0%)
  198. Title                                    : Spanish-FORCED-PGS
  199. Language                                 : Spanish
  200. Default                                  : No
  201. Forced                                   : No

  202. Text #5
  203. ID                                       : 12
  204. Format                                   : PGS
  205. Muxing mode                              : zlib
  206. Codec ID                                 : S_HDMV/PGS
  207. Codec ID/Info                            : Picture based subtitle format used on BDs/HD-DVDs
  208. Duration                                 : 2 h 6 min
  209. Bit rate                                 : 653 b/s
  210. Count of elements                        : 60
  211. Stream size                              : 605 KiB (0%)
  212. Title                                    : French-FORCED-PGS
  213. Language                                 : French
  214. Default                                  : No
  215. Forced                                   : No

  216. Menu
  217. 00:00:00.000                             : en:Chapter 01
  218. 00:07:13.224                             : en:Chapter 02
  219. 00:12:01.554                             : en:Chapter 03
  220. 00:17:17.745                             : en:Chapter 04
  221. 00:21:17.192                             : en:Chapter 05
  222. 00:28:49.811                             : en:Chapter 06
  223. 00:35:04.393                             : en:Chapter 07
  224. 00:40:51.574                             : en:Chapter 08
  225. 00:46:32.498                             : en:Chapter 09
  226. 00:52:05.247                             : en:Chapter 10
  227. 01:00:59.197                             : en:Chapter 11
  228. 01:06:50.256                             : en:Chapter 12
  229. 01:11:07.638                             : en:Chapter 13
  230. 01:17:21.094                             : en:Chapter 14
  231. 01:26:55.210                             : en:Chapter 15
  232. 01:33:01.492                             : en:Chapter 16
  233. 01:42:55.878                             : en:Chapter 17
  234. 01:50:01.553                             : en:Chapter 18
  235. 01:54:56.222                             : en:Chapter 19
  236. 01:58:38.236                             : en:Chapter 20
复制代码

复制代码

侏罗纪天下2/侏罗纪天下:殒落国家 Jurassic.World.Fallen.Kingdom.2018.1080p.BluRay.REMUX.AVC.DTS-X.7.1-FGT 32.96GB-2.png 侏罗纪天下2/侏罗纪天下:殒落国家 Jurassic.World.Fallen.Kingdom.2018.1080p.BluRay.REMUX.AVC.DTS-X.7.1-FGT 32.96GB-3.png 侏罗纪天下2/侏罗纪天下:殒落国家 Jurassic.World.Fallen.Kingdom.2018.1080p.BluRay.REMUX.AVC.DTS-X.7.1-FGT 32.96GB-4.png






回复

使用道具 举报

蓝光币
821
发表于 2018-9-12 20:14:50 | 显示全部楼层
谢谢楼主分享
回复 支持 反对

使用道具 举报

蓝光币
3
发表于 2018-9-24 14:35:28 | 显示全部楼层
谢谢楼主分享
回复 支持 反对

使用道具 举报

懒得打字嘛,点击右侧快捷回复 【右侧内容,后台自定义】
您需要登录后才可以回帖 登录 | 立即加入

本版积分规则

Archiver|小黑屋| 蓝光电影网 |网站地图

Copyright © 2021 Comsenz Inc. Powered by 蓝光电影网

蓝光电影网

本站内容由用户自主分享和转载自互联网,转载目的在于传递更多信息,并不代表本网赞同其观点和对其真实性负责。

如有侵权、违反国家法律政策行为,请联系我们,我们会第一时间及时清除和处理!

举报反馈邮箱:[email protected]

快速回复 返回顶部 返回列表