找回密码

蓝光电影网

查看: 7297|回复: 14

[剧情] 她唇之下/欲乱唇迷 Below.Her.Mouth.2016.1080p.BluRay.REMUX.AVC.DD2.0-FGT 15.05GB

[复制链接]
蓝光币
623
发表于 2018-9-12 00:19:14 | 显示全部楼层 |阅读模式

她唇之下/欲乱唇迷 Below.Her.Mouth.2016.1080p.BluRay.REMUX.AVC.DD2.0-FGT 15.05GB-1.jpg
◎译  名 她唇之下/欲乱唇迷(台)
◎片  名 Below Her Mouth
◎年  代 2016
◎产  地 加拿大
◎类  别 剧情/同性
◎语  言 英语
◎上映日期 2016-09-10(多伦多电影节)/2017-02-10(加拿大)
◎豆瓣评分 5.7/10 from 6,992 users
◎豆瓣链接 https://movie.douban.com/subject/26815983/
◎片  长 94分钟
◎导  演 爱普洛·马伦 April Mullen
◎主  演 艾瑞卡·林德 Erika Linder
      娜塔莉·科瑞尔 Natalie Krill
      塞巴斯蒂安·皮戈特 Sebastian Pigott
      梅寇·阮 Mayko Nguyen
      汤米-安珀·皮里 Tommie-Amber Pirie
      梅兰妮·利什曼 Melanie Leishman
      安德里雅·施特方西科瓦 Andrea Stefancikova
      达妮埃拉·巴博萨 Daniela Barbosa
      伊莉丝·鲍曼 Elise Bauman
      乔斯林·休顿 Jocelyn Hudon
      卡尔·坎贝尔 Karl Campbell
      阿纳斯塔西娅·玛莉尼娜 Anastasia Marinina
      伊恩·马休斯 Ian Matthews
      约翰·怀特 John White
      珍妮佛·奎寇斯基 Jennifer Krukowski

◎简  介

  一个意想不到的事务敏捷升级,现实中两女人永久改变了他们的生活。

  1. Video
  2. ID                                       : 1
  3. Format                                   : AVC
  4. Format/Info                              : Advanced Video Codec
  5. Format profile                           : [url=/cdn-cgi/l/email-protection][email protected][/url]
  6. Format settings                          : CABAC / 4 Ref Frames
  7. Format settings, CABAC                   : Yes
  8. Format settings, ReFrames                : 4 frames
  9. Format settings, GOP                     : M=3, N=15
  10. Codec ID                                 : V_MPEG4/ISO/AVC
  11. Duration                                 : 1 h 31 min
  12. Bit rate mode                            : Variable
  13. Bit rate                                 : 23.4 Mb/s
  14. Maximum bit rate                         : 30.0 Mb/s
  15. Width                                    : 1 920 pixels
  16. Height                                   : 1 080 pixels
  17. Display aspect ratio                     : 16:9
  18. Frame rate mode                          : Constant
  19. Frame rate                               : 23.976 (24000/1001) FPS
  20. Standard                                 : NTSC
  21. Color space                              : YUV
  22. Chroma subsampling                       : 4:2:0
  23. Bit depth                                : 8 bits
  24. Scan type                                : MBAFF
  25. Scan type, store method                  : Interleaved fields
  26. Scan order                               : Top Field First
  27. Bits/(Pixel*Frame)                       : 0.470
  28. Stream size                              : 14.9 GiB (99%)
  29. Title                                    : Below.Her.Mouth.2016.1080p.BluRay.REMUX.AVC.DD2.0-FGT
  30. Language                                 : English
  31. Default                                  : No
  32. Forced                                   : No
  33. Color range                              : Limited
  34. Color primaries                          : BT.709
  35. Transfer characteristics                 : BT.709
  36. Matrix coefficients                      : BT.709

  37. Audio
  38. ID                                       : 2
  39. Format                                   : AC-3
  40. Format/Info                              : Audio Coding 3
  41. Codec ID                                 : A_AC3
  42. Duration                                 : 1 h 31 min
  43. Bit rate mode                            : Constant
  44. Bit rate                                 : 192 kb/s
  45. Channel(s)                               : 2 channels
  46. Channel positions                        : Front: L R
  47. Sampling rate                            : 48.0 kHz
  48. Frame rate                               : 31.250 FPS (1536 SPF)
  49. Bit depth                                : 16 bits
  50. Compression mode                         : Lossy
  51. Stream size                              : 126 MiB (1%)
  52. Title                                    : Below.Her.Mouth.2016.1080p.BluRay.REMUX.AVC.DD2.0-FGT
  53. Service kind                             : Complete Main
  54. Default                                  : Yes
  55. Forced                                   : No

  56. Menu
  57. 00:00:00.000                             : en:Chapter 01
  58. 00:03:00.513                             : en:Chapter 02
  59. 00:06:00.234                             : en:Chapter 03
  60. 00:09:00.581                             : en:Chapter 04
  61. 00:12:00.052                             : en:Chapter 05
  62. 00:15:00.149                             : en:Chapter 06
  63. 00:18:00.370                             : en:Chapter 07
  64. 00:21:00.300                             : en:Chapter 08
  65. 00:24:00.230                             : en:Chapter 09
  66. 00:27:00.201                             : en:Chapter 10
  67. 00:30:00.548                             : en:Chapter 11
  68. 00:33:00.311                             : en:Chapter 12
  69. 00:36:00.324                             : en:Chapter 13
  70. 00:39:00.379                             : en:Chapter 14
  71. 00:41:59.808                             : en:Chapter 15
  72. 00:45:00.572                             : en:Chapter 16
  73. 00:48:00.460                             : en:Chapter 17
  74. 00:51:00.265                             : en:Chapter 18
  75. 00:54:00.487                             : en:Chapter 19
  76. 00:57:00.375                             : en:Chapter 20
  77. 01:00:00.597                             : en:Chapter 21
  78. 01:03:00.401                             : en:Chapter 22
  79. 01:06:00.456                             : en:Chapter 23
  80. 01:09:00.136                             : en:Chapter 24
  81. 01:12:00.316                             : en:Chapter 25
  82. 01:15:00.287                             : en:Chapter 26
  83. 01:18:00.509                             : en:Chapter 27
  84. 01:21:00.438                             : en:Chapter 28
  85. 01:24:00.243                             : en:Chapter 29
  86. 01:27:00.256                             : en:Chapter 30
  87. 01:30:00.395                             : en:Chapter 31
复制代码

复制代码

她唇之下/欲乱唇迷 Below.Her.Mouth.2016.1080p.BluRay.REMUX.AVC.DD2.0-FGT 15.05GB-2.png 她唇之下/欲乱唇迷 Below.Her.Mouth.2016.1080p.BluRay.REMUX.AVC.DD2.0-FGT 15.05GB-3.png 她唇之下/欲乱唇迷 Below.Her.Mouth.2016.1080p.BluRay.REMUX.AVC.DD2.0-FGT 15.05GB-4.png






回复

使用道具 举报

懒得打字嘛,点击右侧快捷回复 【右侧内容,后台自定义】
您需要登录后才可以回帖 登录 | 立即加入

本版积分规则

Archiver|小黑屋| 蓝光电影网 |网站地图

Copyright © 2021 Comsenz Inc. Powered by 蓝光电影网

蓝光电影网

本站内容由用户自主分享和转载自互联网,转载目的在于传递更多信息,并不代表本网赞同其观点和对其真实性负责。

如有侵权、违反国家法律政策行为,请联系我们,我们会第一时间及时清除和处理!

举报反馈邮箱:[email protected]

快速回复 返回顶部 返回列表