找回密码

蓝光电影网

查看: 778|回复: 3

[动作] 51号公式/决战51州 Formula.51.2001.1080p.BluRay.REMUX.AVC.DTS-HD.MA.5.1-FGT 17.75GB

[复制链接]
蓝光币
623
发表于 2018-9-12 00:20:14 | 显示全部楼层 |阅读模式

51号公式/决战51州 Formula.51.2001.1080p.BluRay.REMUX.AVC.DTS-HD.MA.5.1-FGT 17.75GB-1.jpg
◎译  名 51号公式/决战51州/毒家买卖/第51州
◎片  名 Formula 51
◎年  代 2001
◎产  地 英国/加拿大
◎类  别 行动/笑剧/犯罪
◎语  言 英语
◎上映日期 2001-12-07
◎豆瓣评分 6.6/10 from 437 users
◎豆瓣链接 https://movie.douban.com/subject/1297256/
◎片  长 92 分钟
◎导  演 于仁泰 Ronny Yu
◎主  演 塞缪尔·杰克逊 Samuel L. Jackson
      罗伯特·卡莱尔 Robert Carlyle
      艾米莉·莫迪默 Emily Mortimer
      西恩·帕特维 Sean Pertwee
      瑞斯·伊凡斯 Rhys Ifans
      米特·洛夫 Meat Loaf
      麦克·麦克唐纳德 Mac McDonald
      David Webber
      迈克尔·J·雷诺兹 Michael J. Reynolds
      朱尼克斯 伊诺西恩 Junix Inocian
      Paul Barber

◎简  介

  比历史上任何的震颤、愉悦、飞腾都激烈51倍的蓝色化合物,2万万的买卖,为蓝色药丸疯狂的城市。这一切都起头于1971年,艾尔默·麦科尔罗伊(萨缪尔·杰克逊)结业确当天,在开车回家的路上吸大麻被就地擒获,因而一眨眼的功夫,他的药剂师执照之梦,象他手里的青烟一样飘散了……

  1. Video
  2. ID                                       : 1
  3. Format                                   : AVC
  4. Format/Info                              : Advanced Video Codec
  5. Format profile                           : [url=/cdn-cgi/l/email-protection][email protected][/url]
  6. Format settings                          : CABAC / 4 Ref Frames
  7. Format settings, CABAC                   : Yes
  8. Format settings, ReFrames                : 4 frames
  9. Codec ID                                 : V_MPEG4/ISO/AVC
  10. Duration                                 : 1 h 32 min
  11. Bit rate mode                            : Variable
  12. Bit rate                                 : 24.0 Mb/s
  13. Maximum bit rate                         : 35.0 Mb/s
  14. Width                                    : 1 920 pixels
  15. Height                                   : 1 080 pixels
  16. Display aspect ratio                     : 16:9
  17. Frame rate mode                          : Constant
  18. Frame rate                               : 23.976 (24000/1001) FPS
  19. Standard                                 : NTSC
  20. Color space                              : YUV
  21. Chroma subsampling                       : 4:2:0
  22. Bit depth                                : 8 bits
  23. Scan type                                : Progressive
  24. Bits/(Pixel*Frame)                       : 0.482
  25. Stream size                              : 15.5 GiB (87%)
  26. Title                                    : The.51st.State.2001.1080p.BluRay.REMUX.AVC.DTS-HD.MA.5.1-FGT
  27. Language                                 : English
  28. Default                                  : No
  29. Forced                                   : No
  30. Color range                              : Limited
  31. Color primaries                          : BT.709
  32. Transfer characteristics                 : BT.709
  33. Matrix coefficients                      : BT.709

  34. Audio #1
  35. ID                                       : 2
  36. Format                                   : DTS
  37. Format/Info                              : Digital Theater Systems
  38. Format profile                           : MA / Core
  39. Codec ID                                 : A_DTS
  40. Duration                                 : 1 h 32 min
  41. Bit rate mode                            : Variable / Constant
  42. Bit rate                                 : 1 920 kb/s / 1 509 kb/s
  43. Channel(s)                               : 6 channels
  44. Channel positions                        : Front: L C R, Side: L R, LFE
  45. Sampling rate                            : 48.0 kHz
  46. Frame rate                               : 93.750 FPS (512 SPF)
  47. Bit depth                                : 16 bits
  48. Compression mode                         : Lossless / Lossy
  49. Stream size                              : 1.25 GiB (7%)
  50. Title                                    : The.51st.State.2001.1080p.BluRay.REMUX.AVC.DTS-HD.MA.5.1-FGT
  51. Language                                 : English
  52. Default                                  : Yes
  53. Forced                                   : No

  54. Audio #2
  55. ID                                       : 3
  56. Format                                   : DTS
  57. Format/Info                              : Digital Theater Systems
  58. Codec ID                                 : A_DTS
  59. Duration                                 : 1 h 32 min
  60. Bit rate mode                            : Constant
  61. Bit rate                                 : 1 509 kb/s
  62. Channel(s)                               : 6 channels
  63. Channel positions                        : Front: L C R, Side: L R, LFE
  64. Sampling rate                            : 48.0 kHz
  65. Frame rate                               : 93.750 FPS (512 SPF)
  66. Bit depth                                : 16 bits
  67. Compression mode                         : Lossy
  68. Stream size                              : 1 000 MiB (6%)
  69. Title                                    : The.51st.State.2001.1080p.BluRay.REMUX.AVC.DTS-HD.MA.5.1-FGT
  70. Language                                 : English
  71. Default                                  : No
  72. Forced                                   : No

  73. Menu
  74. 00:00:00.000                             : en:Chapter 01
  75. 00:06:58.126                             : en:Chapter 02
  76. 00:15:02.109                             : en:Chapter 03
  77. 00:22:31.016                             : en:Chapter 04
  78. 00:27:57.467                             : en:Chapter 05
  79. 00:37:36.045                             : en:Chapter 06
  80. 00:45:38.360                             : en:Chapter 07
  81. 00:53:20.530                             : en:Chapter 08
  82. 01:00:47.393                             : en:Chapter 09
  83. 01:09:27.955                             : en:Chapter 10
  84. 01:15:57.719                             : en:Chapter 11
  85. 01:25:06.392                             : en:Chapter 12
复制代码

复制代码

51号公式/决战51州 Formula.51.2001.1080p.BluRay.REMUX.AVC.DTS-HD.MA.5.1-FGT 17.75GB-2.png 51号公式/决战51州 Formula.51.2001.1080p.BluRay.REMUX.AVC.DTS-HD.MA.5.1-FGT 17.75GB-3.png 51号公式/决战51州 Formula.51.2001.1080p.BluRay.REMUX.AVC.DTS-HD.MA.5.1-FGT 17.75GB-4.png






回复

使用道具 举报

懒得打字嘛,点击右侧快捷回复 【右侧内容,后台自定义】
您需要登录后才可以回帖 登录 | 立即加入

本版积分规则

Archiver|小黑屋| 蓝光电影网 |网站地图

Copyright © 2021 Comsenz Inc. Powered by 蓝光电影网

蓝光电影网

本站内容由用户自主分享和转载自互联网,转载目的在于传递更多信息,并不代表本网赞同其观点和对其真实性负责。

如有侵权、违反国家法律政策行为,请联系我们,我们会第一时间及时清除和处理!

举报反馈邮箱:[email protected]

快速回复 返回顶部 返回列表