找回密码

蓝光电影网

查看: 515|回复: 2

[剧情] 来自纽约的女孩 Smithereens.1982.1080p.BluRay.REMUX.AVC.LPCM.1.0-FGT 24.22GB

[复制链接]
蓝光币
623
发表于 2018-9-12 00:20:58 | 显示全部楼层 |阅读模式

来自纽约的女孩 Smithereens.1982.1080p.BluRay.REMUX.AVC.LPCM.1.0-FGT 24.22GB-1.jpg
◎译  名 来自纽约的女孩
◎片  名 Smithereens
◎年  代 1982
◎产  地 美国
◎类  别 剧情/音乐
◎语  言 英语
◎上映日期 1982-09-11
◎豆瓣评分 /10 from 0 users
◎豆瓣链接 https://movie.douban.com/subject/1433167/
◎片  长 89 分钟
◎导  演 苏珊·塞德尔曼 Susan Seidelman
◎主  演 苏珊·伯曼 Susan Berman
      Brad Rijn
      理查德·黑尔 Richard Hell

◎简  介

  None

◎获奖情况

  第35届戛纳电影节  (1982)
  主比赛单元 金棕榈奖(提名) 苏珊·塞德尔曼

  1. Video
  2. ID                                       : 1
  3. Format                                   : AVC
  4. Format/Info                              : Advanced Video Codec
  5. Format profile                           : [url=/cdn-cgi/l/email-protection][email protected][/url]
  6. Format settings                          : CABAC / 4 Ref Frames
  7. Format settings, CABAC                   : Yes
  8. Format settings, ReFrames                : 4 frames
  9. Codec ID                                 : V_MPEG4/ISO/AVC
  10. Duration                                 : 1 h 33 min
  11. Bit rate mode                            : Variable
  12. Bit rate                                 : 35.7 Mb/s
  13. Maximum bit rate                         : 37.0 Mb/s
  14. Width                                    : 1 920 pixels
  15. Height                                   : 1 080 pixels
  16. Display aspect ratio                     : 16:9
  17. Frame rate mode                          : Constant
  18. Frame rate                               : 23.976 (24000/1001) FPS
  19. Color space                              : YUV
  20. Chroma subsampling                       : 4:2:0
  21. Bit depth                                : 8 bits
  22. Scan type                                : Progressive
  23. Bits/(Pixel*Frame)                       : 0.719
  24. Stream size                              : 23.3 GiB (96%)
  25. Title                                    : Smithereens.1982.1080p.BluRay.REMUX.AVC.LPCM.1.0-FGT
  26. Language                                 : English
  27. Default                                  : No
  28. Forced                                   : No

  29. Audio #1
  30. ID                                       : 2
  31. Format                                   : PCM
  32. Format settings                          : Little / Signed
  33. Codec ID                                 : A_PCM/INT/LIT
  34. Duration                                 : 1 h 33 min
  35. Bit rate mode                            : Constant
  36. Bit rate                                 : 1 152 kb/s
  37. Sampling rate                            : 48.0 kHz
  38. Frame rate                               : 30.000 FPS (1600 SPF)
  39. Bit depth                                : 24 bits
  40. Stream size                              : 771 MiB (3%)
  41. Title                                    : Smithereens.1982.1080p.BluRay.REMUX.AVC.LPCM.1.0-FGT
  42. Language                                 : English
  43. Default                                  : Yes
  44. Forced                                   : No

  45. Audio #2
  46. ID                                       : 3
  47. Format                                   : AC-3
  48. Format/Info                              : Audio Coding 3
  49. Codec ID                                 : A_AC3
  50. Duration                                 : 1 h 33 min
  51. Bit rate mode                            : Constant
  52. Bit rate                                 : 192 kb/s
  53. Channel(s)                               : 1 channel
  54. Channel positions                        : Front: C
  55. Sampling rate                            : 48.0 kHz
  56. Frame rate                               : 31.250 FPS (1536 SPF)
  57. Bit depth                                : 16 bits
  58. Compression mode                         : Lossy
  59. Stream size                              : 128 MiB (1%)
  60. Title                                    : Smithereens.1982.1080p.BluRay.REMUX.AVC.LPCM.1.0-FGT
  61. Language                                 : English
  62. Service kind                             : Complete Main
  63. Default                                  : No
  64. Forced                                   : No

  65. Text
  66. ID                                       : 4
  67. Format                                   : PGS
  68. Muxing mode                              : zlib
  69. Codec ID                                 : S_HDMV/PGS
  70. Codec ID/Info                            : Picture based subtitle format used on BDs/HD-DVDs
  71. Duration                                 : 1 h 33 min
  72. Bit rate                                 : 54.2 kb/s
  73. Count of elements                        : 2440
  74. Stream size                              : 36.1 MiB (0%)
  75. Title                                    : English-PGS
  76. Language                                 : English
  77. Default                                  : Yes
  78. Forced                                   : No

  79. Menu
  80. 00:00:00.000                             : en:Chapter 01
  81. 00:07:24.444                             : en:Chapter 02
  82. 00:13:01.071                             : en:Chapter 03
  83. 00:17:06.608                             : en:Chapter 04
  84. 00:24:27.507                             : en:Chapter 05
  85. 00:27:41.576                             : en:Chapter 06
  86. 00:34:32.320                             : en:Chapter 07
  87. 00:39:43.798                             : en:Chapter 08
  88. 00:46:09.767                             : en:Chapter 09
  89. 00:58:07.025                             : en:Chapter 10
  90. 01:07:06.272                             : en:Chapter 11
  91. 01:10:35.022                             : en:Chapter 12
  92. 01:19:39.608                             : en:Chapter 13
  93. 01:27:43.258                             : en:Chapter 14
复制代码

复制代码

来自纽约的女孩 Smithereens.1982.1080p.BluRay.REMUX.AVC.LPCM.1.0-FGT 24.22GB-2.png 来自纽约的女孩 Smithereens.1982.1080p.BluRay.REMUX.AVC.LPCM.1.0-FGT 24.22GB-3.png 来自纽约的女孩 Smithereens.1982.1080p.BluRay.REMUX.AVC.LPCM.1.0-FGT 24.22GB-4.png






回复

使用道具 举报

懒得打字嘛,点击右侧快捷回复 【右侧内容,后台自定义】
您需要登录后才可以回帖 登录 | 立即加入

本版积分规则

Archiver|小黑屋| 蓝光电影网 |网站地图

Copyright © 2021 Comsenz Inc. Powered by 蓝光电影网

蓝光电影网

本站内容由用户自主分享和转载自互联网,转载目的在于传递更多信息,并不代表本网赞同其观点和对其真实性负责。

如有侵权、违反国家法律政策行为,请联系我们,我们会第一时间及时清除和处理!

举报反馈邮箱:[email protected]

快速回复 返回顶部 返回列表