找回密码

蓝光电影网

查看: 5150|回复: 3

[传记] 巴比龙/恶魔岛 Papillon.1973.1080p.BluRay.REMUX.AVC.DTS-HD.MA.5.1-FGT 35.39GB

[复制链接]
蓝光币
623
发表于 2018-9-12 00:21:22 | 显示全部楼层 |阅读模式

巴比龙/恶魔岛 Papillon.1973.1080p.BluRay.REMUX.AVC.DTS-HD.MA.5.1-FGT 35.39GB-1.jpg
◎译  名 巴比龙/恶魔岛/巴比笼/蝴蝶
◎片  名 Papillon
◎年  代 1973
◎产  地 美国/法国
◎类  别 列传/犯罪/剧情
◎语  言 英语
◎上映日期 1973-12-16(美国)
◎豆瓣评分 8.7/10 from 5,470 users
◎豆瓣链接 https://movie.douban.com/subject/1293820/
◎片  长 151分钟
◎导  演 弗兰克林·斯凡那 Franklin J. Schaffner
◎主  演 史蒂夫·麦奎因 Steve McQueen
      达斯汀·霍夫曼 Dustin Hoffman
      维克托·乔里 Victor Jory
      唐·戈登 Don Gordon
      安东尼·泽比 Anthony Zerbe

◎简  介

  绰号巴比龙的亨利·查理尔(史蒂夫·麦奎因 Steve McQueen饰)正要被放逐到圭亚那一个名为“魔鬼岛”的苦役营毕生服刑。查理尔因被控杀戮一位皮条客而被捕入狱,可他始终以为自己是冤枉的。在逃运船上,身强力壮的查理尔庇护了一个带着眼镜狡猾的常识份子路易斯·德加(达斯汀·霍夫曼 Dustin Hoffman饰)。为了洗刷自己的罪名,查理尔从他踏上“魔鬼岛”的第一天起,就起头在德加的帮助下策划逃狱逃窜。但是“魔鬼岛”地处荒蛮之地,四周环水,而且处处风行着可怕的疾病。查理尔一次又一次地逃狱,又一次再一次地被捉回。十多年来,他仍孤注一掷地抱着一袋椰壳跳下大海逃生。
  美国典范逃狱冒险剧情片《巴比龙》,按照法国犯人亨利·查理尔于1969年颁发的同名畅销书籍《巴比龙》改编而成。巴比龙是亨利·查理尔的绰号,绰号得名于他胸前蝴蝶形的纹身。本片荣获1974年第46届奥斯卡金像奖剧情类最好原创配乐提名,并获得1974年第31届金球奖电影类-剧情类最好男配角提名。

◎获奖情况

  第46届奥斯卡金像奖  (1974)
  剧情片最好原创配乐(提名) 杰瑞·高德史姑娘

  1. Video
  2. ID                                       : 1
  3. Format                                   : AVC
  4. Format/Info                              : Advanced Video Codec
  5. Format profile                           : [url=/cdn-cgi/l/email-protection][email protected][/url]
  6. Format settings                          : CABAC / 2 Ref Frames
  7. Format settings, CABAC                   : Yes
  8. Format settings, ReFrames                : 2 frames
  9. Format settings, GOP                     : M=1, N=10
  10. Codec ID                                 : V_MPEG4/ISO/AVC
  11. Duration                                 : 2 h 30 min
  12. Bit rate mode                            : Variable
  13. Bit rate                                 : 29.9 Mb/s
  14. Width                                    : 1 920 pixels
  15. Height                                   : 1 080 pixels
  16. Display aspect ratio                     : 16:9
  17. Frame rate mode                          : Constant
  18. Frame rate                               : 23.976 (24000/1001) FPS
  19. Color space                              : YUV
  20. Chroma subsampling                       : 4:2:0
  21. Bit depth                                : 8 bits
  22. Scan type                                : Progressive
  23. Bits/(Pixel*Frame)                       : 0.602
  24. Stream size                              : 31.5 GiB (89%)
  25. Title                                    : Papillon.1973.1080p.BluRay.REMUX.AVC.DTS-HD.MA.5.1-FGT
  26. Language                                 : English
  27. Default                                  : No
  28. Forced                                   : No

  29. Audio #1
  30. ID                                       : 2
  31. Format                                   : DTS
  32. Format/Info                              : Digital Theater Systems
  33. Format profile                           : MA / Core
  34. Codec ID                                 : A_DTS
  35. Duration                                 : 2 h 30 min
  36. Bit rate mode                            : Variable / Constant
  37. Bit rate                                 : 2 182 kb/s / 1 509 kb/s
  38. Channel(s)                               : 6 channels
  39. Channel positions                        : Front: L C R, Side: L R, LFE
  40. Sampling rate                            : 48.0 kHz
  41. Frame rate                               : 93.750 FPS (512 SPF)
  42. Bit depth                                : 16 bits
  43. Compression mode                         : Lossless / Lossy
  44. Stream size                              : 2.29 GiB (6%)
  45. Title                                    : Papillon.1973.1080p.BluRay.REMUX.AVC.DTS-HD.MA.5.1-FGT
  46. Language                                 : English
  47. Default                                  : Yes
  48. Forced                                   : No

  49. Audio #2
  50. ID                                       : 3
  51. Format                                   : DTS
  52. Format/Info                              : Digital Theater Systems
  53. Codec ID                                 : A_DTS
  54. Duration                                 : 2 h 30 min
  55. Bit rate mode                            : Constant
  56. Bit rate                                 : 1 509 kb/s
  57. Channel(s)                               : 6 channels
  58. Channel positions                        : Front: L C R, Side: L R, LFE
  59. Sampling rate                            : 48.0 kHz
  60. Frame rate                               : 93.750 FPS (512 SPF)
  61. Bit depth                                : 16 bits
  62. Compression mode                         : Lossy
  63. Stream size                              : 1.59 GiB (4%)
  64. Title                                    : Papillon.1973.1080p.BluRay.REMUX.AVC.DTS-HD.MA.5.1-FGT
  65. Language                                 : English
  66. Default                                  : No
  67. Forced                                   : No

  68. Text #1
  69. ID                                       : 4
  70. Format                                   : PGS
  71. Muxing mode                              : zlib
  72. Codec ID                                 : S_HDMV/PGS
  73. Codec ID/Info                            : Picture based subtitle format used on BDs/HD-DVDs
  74. Duration                                 : 2 h 27 min
  75. Bit rate                                 : 14.4 kb/s
  76. Count of elements                        : 1786
  77. Stream size                              : 15.2 MiB (0%)
  78. Title                                    : English-PGS
  79. Language                                 : English
  80. Default                                  : Yes
  81. Forced                                   : No

  82. Text #2
  83. ID                                       : 5
  84. Format                                   : PGS
  85. Muxing mode                              : zlib
  86. Codec ID                                 : S_HDMV/PGS
  87. Codec ID/Info                            : Picture based subtitle format used on BDs/HD-DVDs
  88. Duration                                 : 2 h 27 min
  89. Bit rate                                 : 14.4 kb/s
  90. Count of elements                        : 1786
  91. Stream size                              : 15.2 MiB (0%)
  92. Title                                    : English-PGS
  93. Language                                 : English
  94. Default                                  : No
  95. Forced                                   : No

  96. Text #3
  97. ID                                       : 6
  98. Format                                   : PGS
  99. Muxing mode                              : zlib
  100. Codec ID                                 : S_HDMV/PGS
  101. Codec ID/Info                            : Picture based subtitle format used on BDs/HD-DVDs
  102. Duration                                 : 2 h 27 min
  103. Bit rate                                 : 16.7 kb/s
  104. Count of elements                        : 2156
  105. Stream size                              : 17.7 MiB (0%)
  106. Title                                    : English-FORCED-PGS
  107. Language                                 : English
  108. Default                                  : No
  109. Forced                                   : No

  110. Text #4
  111. ID                                       : 7
  112. Format                                   : PGS
  113. Muxing mode                              : zlib
  114. Codec ID                                 : S_HDMV/PGS
  115. Codec ID/Info                            : Picture based subtitle format used on BDs/HD-DVDs
  116. Duration                                 : 2 h 27 min
  117. Bit rate                                 : 12.6 kb/s
  118. Count of elements                        : 1246
  119. Stream size                              : 13.3 MiB (0%)
  120. Title                                    : Danish-PGS
  121. Language                                 : Danish
  122. Default                                  : No
  123. Forced                                   : No

  124. Text #5
  125. ID                                       : 8
  126. Format                                   : PGS
  127. Muxing mode                              : zlib
  128. Codec ID                                 : S_HDMV/PGS
  129. Codec ID/Info                            : Picture based subtitle format used on BDs/HD-DVDs
  130. Duration                                 : 2 h 27 min
  131. Bit rate                                 : 12.8 kb/s
  132. Count of elements                        : 1250
  133. Stream size                              : 13.5 MiB (0%)
  134. Title                                    : Finnish-PGS
  135. Language                                 : Finnish
  136. Default                                  : No
  137. Forced                                   : No

  138. Text #6
  139. ID                                       : 9
  140. Format                                   : PGS
  141. Muxing mode                              : zlib
  142. Codec ID                                 : S_HDMV/PGS
  143. Codec ID/Info                            : Picture based subtitle format used on BDs/HD-DVDs
  144. Duration                                 : 2 h 30 min
  145. Bit rate                                 : 11.1 kb/s
  146. Count of elements                        : 1250
  147. Stream size                              : 11.9 MiB (0%)
  148. Title                                    : Norwegian-PGS
  149. Language                                 : Norwegian
  150. Default                                  : No
  151. Forced                                   : No

  152. Text #7
  153. ID                                       : 10
  154. Format                                   : PGS
  155. Muxing mode                              : zlib
  156. Codec ID                                 : S_HDMV/PGS
  157. Codec ID/Info                            : Picture based subtitle format used on BDs/HD-DVDs
  158. Duration                                 : 2 h 27 min
  159. Bit rate                                 : 14.6 kb/s
  160. Count of elements                        : 1686
  161. Stream size                              : 15.4 MiB (0%)
  162. Title                                    : Spanish-PGS
  163. Language                                 : Spanish
  164. Default                                  : No
  165. Forced                                   : No

  166. Text #8
  167. ID                                       : 11
  168. Format                                   : PGS
  169. Muxing mode                              : zlib
  170. Codec ID                                 : S_HDMV/PGS
  171. Codec ID/Info                            : Picture based subtitle format used on BDs/HD-DVDs
  172. Duration                                 : 2 h 30 min
  173. Bit rate                                 : 11.0 kb/s
  174. Count of elements                        : 1268
  175. Stream size                              : 11.8 MiB (0%)
  176. Title                                    : Swedish-PGS
  177. Language                                 : Swedish
  178. Default                                  : No
  179. Forced                                   : No

  180. Menu
  181. 00:00:00.000                             : en:Chapter 01
  182. 00:12:41.719                             : en:Chapter 02
  183. 00:23:43.338                             : en:Chapter 03
  184. 00:31:37.979                             : en:Chapter 04
  185. 00:45:34.398                             : en:Chapter 05
  186. 00:56:53.034                             : en:Chapter 06
  187. 01:07:33.132                             : en:Chapter 07
  188. 01:15:57.469                             : en:Chapter 08
  189. 01:25:55.316                             : en:Chapter 09
  190. 01:32:43.933                             : en:Chapter 10
  191. 01:37:39.812                             : en:Chapter 11
  192. 01:47:21.143                             : en:Chapter 12
  193. 01:54:18.685                             : en:Chapter 13
  194. 02:02:39.852                             : en:Chapter 14
  195. 02:10:15.599                             : en:Chapter 15
  196. 02:23:51.414                             : en:Chapter 16
复制代码

复制代码

巴比龙/恶魔岛 Papillon.1973.1080p.BluRay.REMUX.AVC.DTS-HD.MA.5.1-FGT 35.39GB-2.png 巴比龙/恶魔岛 Papillon.1973.1080p.BluRay.REMUX.AVC.DTS-HD.MA.5.1-FGT 35.39GB-3.png 巴比龙/恶魔岛 Papillon.1973.1080p.BluRay.REMUX.AVC.DTS-HD.MA.5.1-FGT 35.39GB-4.png






回复

使用道具 举报

懒得打字嘛,点击右侧快捷回复 【右侧内容,后台自定义】
您需要登录后才可以回帖 登录 | 立即加入

本版积分规则

Archiver|小黑屋| 蓝光电影网 |网站地图

Copyright © 2021 Comsenz Inc. Powered by 蓝光电影网

蓝光电影网

本站内容由用户自主分享和转载自互联网,转载目的在于传递更多信息,并不代表本网赞同其观点和对其真实性负责。

如有侵权、违反国家法律政策行为,请联系我们,我们会第一时间及时清除和处理!

举报反馈邮箱:[email protected]

快速回复 返回顶部 返回列表