找回密码

蓝光电影网

查看: 1531|回复: 2

[剧情] 猫咪后院之家/猫咪收集之家 Neko.Atsume.House.2017.JAPANESE.1080p.BluRay.REMUX.AVC.TrueHD.5.1-FGT 18.98GB

[复制链接]
蓝光币
623
发表于 2018-9-12 00:22:07 | 显示全部楼层 |阅读模式

猫咪后院之家/猫咪收集之家 Neko.Atsume.House.2017.JAPANESE.1080p.BluRay.REMUX.AVC.TrueHD.5.1-FGT 18.98GB-1.jpg
◎译  名 猫咪后院之家/猫咪收集之家(台)/猫咪来我家(港)
◎片  名 ねこあつめの家
◎年  代 2017
◎产  地 日本
◎类  别 剧情
◎语  言 日语
◎上映日期 2017-04-08(日本)
◎豆瓣评分 6.5/10 from 2,326 users
◎豆瓣链接 https://movie.douban.com/subject/26954690/
◎片  长 92分钟
◎导  演 藏方政俊 Masatoshi Kurakata
◎主  演 伊藤淳史 Atsushi It?
      忽那汐里 Kutsuna Shiori
      户田昌宏 Masahiro Toda
      大久保佳代子 Kaiyoko Okubo
      田口智朗 Tomorowo Taguchi
      木村多江 Tae Kimura
      青户浩香 Aoto Hiro

◎简  介

  年数悄悄获得新人奖,一举成为人气作家的小说家?佐久本胜(伊藤淳史 饰),现在却堕入了低潮期。在编辑会议中,为了让阿胜再次登上畅销排行,编辑长居然发起赶搭时下最风行的『尸速』系列作为新的小说主题,这让原本走小清新气概的佐久本感应疾苦却也只能委曲接管应战。阿胜为了转换情况,来到了乡下的一间古宅,写作灵感就跟这间古宅一样:空?荡?荡。某天,居然有只猫跑了进来,阿胜不经意想起自己的第一本小说,小时辰和猫相处的暖和感受。渐渐地,猫咪们居然疏忽阿胜,起头在古宅来去自若,就当自己家一样。阿胜在义务编辑的美知留(忽那汐里 饰)的帮助,以及宠物店老板(木村多江 饰)的保举下安插出猫咪庭院。年轻小说家的「猫咪收集」的生活就此展开,就是要给你满满的猫咪大庭院!

  1. Video
  2. ID                                       : 1
  3. Format                                   : AVC
  4. Format/Info                              : Advanced Video Codec
  5. Format profile                           : [url=/cdn-cgi/l/email-protection][email protected][/url]
  6. Format settings                          : CABAC / 4 Ref Frames
  7. Format settings, CABAC                   : Yes
  8. Format settings, ReFrames                : 4 frames
  9. Codec ID                                 : V_MPEG4/ISO/AVC
  10. Duration                                 : 1 h 32 min
  11. Bit rate mode                            : Variable
  12. Bit rate                                 : 25.4 Mb/s
  13. Maximum bit rate                         : 30.0 Mb/s
  14. Width                                    : 1 920 pixels
  15. Height                                   : 1 080 pixels
  16. Display aspect ratio                     : 16:9
  17. Frame rate mode                          : Constant
  18. Frame rate                               : 23.976 (24000/1001) FPS
  19. Color space                              : YUV
  20. Chroma subsampling                       : 4:2:0
  21. Bit depth                                : 8 bits
  22. Scan type                                : Progressive
  23. Bits/(Pixel*Frame)                       : 0.511
  24. Stream size                              : 16.4 GiB (86%)
  25. Title                                    : Neko.Atsume.House.2017.JAPANESE.1080p.BluRay.REMUX.AVC.TrueHD.5.1-FGT
  26. Language                                 : English
  27. Default                                  : No
  28. Forced                                   : No

  29. Audio #1
  30. ID                                       : 2
  31. Format                                   : TrueHD
  32. Codec ID                                 : A_TRUEHD
  33. Duration                                 : 1 h 32 min
  34. Bit rate mode                            : Variable
  35. Bit rate                                 : 2 680 kb/s
  36. Maximum bit rate                         : 3 996 kb/s
  37. Channel(s)                               : 6 channels
  38. Channel positions                        : Front: L C R, Side: L R, LFE
  39. Sampling rate                            : 96.0 kHz
  40. Frame rate                               : 2 400.000 FPS (40 SPF)
  41. Compression mode                         : Lossless
  42. Stream size                              : 1.73 GiB (9%)
  43. Title                                    : Neko.Atsume.House.2017.JAPANESE.1080p.BluRay.REMUX.AVC.TrueHD.5.1-FGT
  44. Language                                 : Japanese
  45. Default                                  : Yes
  46. Forced                                   : No

  47. Audio #2
  48. ID                                       : 3
  49. Format                                   : AC-3
  50. Format/Info                              : Audio Coding 3
  51. Codec ID                                 : A_AC3
  52. Duration                                 : 1 h 32 min
  53. Bit rate mode                            : Constant
  54. Bit rate                                 : 640 kb/s
  55. Channel(s)                               : 6 channels
  56. Channel positions                        : Front: L C R, Side: L R, LFE
  57. Sampling rate                            : 48.0 kHz
  58. Frame rate                               : 31.250 FPS (1536 SPF)
  59. Bit depth                                : 16 bits
  60. Compression mode                         : Lossy
  61. Stream size                              : 422 MiB (2%)
  62. Title                                    : Neko.Atsume.House.2017.JAPANESE.1080p.BluRay.REMUX.AVC.TrueHD.5.1-FGT
  63. Language                                 : Japanese
  64. Service kind                             : Complete Main
  65. Default                                  : No
  66. Forced                                   : No

  67. Audio #3
  68. ID                                       : 4
  69. Format                                   : AC-3
  70. Format/Info                              : Audio Coding 3
  71. Codec ID                                 : A_AC3
  72. Duration                                 : 1 h 32 min
  73. Bit rate mode                            : Constant
  74. Bit rate                                 : 640 kb/s
  75. Channel(s)                               : 6 channels
  76. Channel positions                        : Front: L C R, Side: L R, LFE
  77. Sampling rate                            : 48.0 kHz
  78. Frame rate                               : 31.250 FPS (1536 SPF)
  79. Bit depth                                : 16 bits
  80. Compression mode                         : Lossy
  81. Stream size                              : 422 MiB (2%)
  82. Title                                    : Neko.Atsume.House.2017.JAPANESE.1080p.BluRay.REMUX.AVC.TrueHD.5.1-FGT
  83. Language                                 : Japanese
  84. Service kind                             : Complete Main
  85. Default                                  : No
  86. Forced                                   : No

  87. Text #1
  88. ID                                       : 5
  89. Format                                   : PGS
  90. Muxing mode                              : zlib
  91. Codec ID                                 : S_HDMV/PGS
  92. Codec ID/Info                            : Picture based subtitle format used on BDs/HD-DVDs
  93. Duration                                 : 1 h 31 min
  94. Bit rate                                 : 17.0 kb/s
  95. Count of elements                        : 1286
  96. Stream size                              : 11.1 MiB (0%)
  97. Title                                    : English-PGS
  98. Language                                 : English
  99. Default                                  : Yes
  100. Forced                                   : Yes

  101. Text #2
  102. ID                                       : 6
  103. Format                                   : PGS
  104. Muxing mode                              : zlib
  105. Codec ID                                 : S_HDMV/PGS
  106. Codec ID/Info                            : Picture based subtitle format used on BDs/HD-DVDs
  107. Duration                                 : 1 h 31 min
  108. Bit rate                                 : 17.0 kb/s
  109. Count of elements                        : 1286
  110. Stream size                              : 11.1 MiB (0%)
  111. Title                                    : Chinese-PGS
  112. Language                                 : Chinese
  113. Default                                  : No
  114. Forced                                   : No

  115. Text #3
  116. ID                                       : 7
  117. Format                                   : PGS
  118. Muxing mode                              : zlib
  119. Codec ID                                 : S_HDMV/PGS
  120. Codec ID/Info                            : Picture based subtitle format used on BDs/HD-DVDs
  121. Duration                                 : 1 h 31 min
  122. Bit rate                                 : 15.7 kb/s
  123. Count of elements                        : 1286
  124. Stream size                              : 10.3 MiB (0%)
  125. Title                                    : Chinese-PGS
  126. Language                                 : Chinese
  127. Default                                  : No
  128. Forced                                   : No

  129. Menu
  130. 00:00:00.000                             : en:Chapter 01
  131. 00:03:03.808                             : en:Chapter 02
  132. 00:10:00.516                             : en:Chapter 03
  133. 00:14:28.993                             : en:Chapter 04
  134. 00:16:50.050                             : en:Chapter 05
  135. 00:20:58.882                             : en:Chapter 06
  136. 00:27:20.472                             : en:Chapter 07
  137. 00:31:09.534                             : en:Chapter 08
  138. 00:36:44.118                             : en:Chapter 09
  139. 00:40:50.739                             : en:Chapter 10
  140. 00:43:34.236                             : en:Chapter 11
  141. 00:48:49.468                             : en:Chapter 12
  142. 00:56:32.931                             : en:Chapter 13
  143. 00:59:57.927                             : en:Chapter 14
  144. 01:04:22.900                             : en:Chapter 15
  145. 01:07:24.415                             : en:Chapter 16
  146. 01:14:37.139                             : en:Chapter 17
  147. 01:21:51.239                             : en:Chapter 18
  148. 01:25:22.909                             : en:Chapter 19
  149. 01:28:31.014                             : en:Chapter 20
复制代码

复制代码

猫咪后院之家/猫咪收集之家 Neko.Atsume.House.2017.JAPANESE.1080p.BluRay.REMUX.AVC.TrueHD.5.1-FGT 18.98GB-2.png 猫咪后院之家/猫咪收集之家 Neko.Atsume.House.2017.JAPANESE.1080p.BluRay.REMUX.AVC.TrueHD.5.1-FGT 18.98GB-3.png 猫咪后院之家/猫咪收集之家 Neko.Atsume.House.2017.JAPANESE.1080p.BluRay.REMUX.AVC.TrueHD.5.1-FGT 18.98GB-4.png






回复

使用道具 举报

懒得打字嘛,点击右侧快捷回复 【右侧内容,后台自定义】
您需要登录后才可以回帖 登录 | 立即加入

本版积分规则

Archiver|小黑屋| 蓝光电影网 |网站地图

Copyright © 2021 Comsenz Inc. Powered by 蓝光电影网

蓝光电影网

本站内容由用户自主分享和转载自互联网,转载目的在于传递更多信息,并不代表本网赞同其观点和对其真实性负责。

如有侵权、违反国家法律政策行为,请联系我们,我们会第一时间及时清除和处理!

举报反馈邮箱:[email protected]

快速回复 返回顶部 返回列表