找回密码

蓝光电影网

查看: 749|回复: 0

[喜剧] 敬畏/情陷高达 Godard.Mon.Amour.2017.FRENCH.1080p.BluRay.REMUX.AVC.DTS-HD.MA.5.1-FGT 29.42GB

[复制链接]
蓝光币
623
发表于 2018-9-12 00:22:24 | 显示全部楼层 |阅读模式

畏敬/情陷高达 Godard.Mon.Amour.2017.FRENCH.1080p.BluRay.REMUX.AVC.DTS-HD.MA.5.1-FGT 29.42GB-1.jpg
◎译  名 畏敬/情陷高达(台)/高达:反动性改变(港)
◎片  名 Le Redoutable
◎年  代 2017
◎产  地 法国/意大利/缅甸
◎类  别 笑剧/列传/恋爱
◎语  言 法语/英语/意大利语
◎上映日期 2017-05-21(戛纳电影节)/2017-09-13(法国)
◎豆瓣评分 6.6/10 from 1,642 users
◎豆瓣链接 https://movie.douban.com/subject/26785583/
◎片  长 107分钟
◎导  演 迈克尔·哈扎纳维希乌斯 Michel Hazanavicius
◎主  演 路易·加瑞尔 Louis Garrel
      斯塔西·马汀 Stacy Martin
      贝热尼丝·贝乔 Bérénice Bejo
      米莎·莱斯科特 Micha Lescot
      格莱高利·嘉德波瓦 Grégory Gadebois
      费利克斯·基赛勒 Félix Kysyl
      亚瑟·欧瑟 Arthur Orcier
      马克·弗赖兹 Marc Fraize
      霍曼·顾皮勒 Romain Goupil
      让-皮埃尔·莫基 Jean-Pierre Mocky
      圭多·卡普里诺 Guido Caprino

◎简  介

  影片由奥斯卡最好影片《艺术家》的导演米歇尔·哈扎纳维希乌斯执导,聚焦上世纪六七十年月的法国影坛,要报告戈达尔和女作家/演员安妮·维亚泽姆斯基之间实在的恋爱故事,由路易斯·加瑞尔出演五月风暴期间的戈达尔。

◎获奖情况

  第70届戛纳电影节  (2017)
  主比赛单元 金棕榈奖(提名) 米歇尔·阿扎纳维西于斯

  第43届法国凯撒电影奖  (2018)
  最好导演(提名) 米歇尔·阿扎纳维西于斯
  最好男配角(提名) 路易·加瑞尔
  最好改编剧本(提名) 米歇尔·阿扎纳维西于斯
  最好摄影(提名)
  最好布景(提名)

  1. Video
  2. ID                                       : 1
  3. Format                                   : AVC
  4. Format/Info                              : Advanced Video Codec
  5. Format profile                           : [url=/cdn-cgi/l/email-protection][email protected][/url]
  6. Format settings                          : CABAC / 4 Ref Frames
  7. Format settings, CABAC                   : Yes
  8. Format settings, ReFrames                : 4 frames
  9. Codec ID                                 : V_MPEG4/ISO/AVC
  10. Duration                                 : 1 h 48 min
  11. Bit rate mode                            : Constant
  12. Bit rate                                 : 35.0 Mb/s
  13. Width                                    : 1 920 pixels
  14. Height                                   : 1 080 pixels
  15. Display aspect ratio                     : 16:9
  16. Frame rate mode                          : Constant
  17. Frame rate                               : 23.976 (24000/1001) FPS
  18. Standard                                 : NTSC
  19. Color space                              : YUV
  20. Chroma subsampling                       : 4:2:0
  21. Bit depth                                : 8 bits
  22. Scan type                                : Progressive
  23. Bits/(Pixel*Frame)                       : 0.704
  24. Stream size                              : 25.4 GiB (86%)
  25. Title                                    : Godard.Mon.Amour.2017.FRENCH.1080p.BluRay.REMUX.AVC.DTS-HD.MA.5.1-FGT
  26. Language                                 : English
  27. Default                                  : No
  28. Forced                                   : No
  29. Color range                              : Limited
  30. Color primaries                          : BT.709
  31. Transfer characteristics                 : BT.709
  32. Matrix coefficients                      : BT.709

  33. Audio #1
  34. ID                                       : 2
  35. Format                                   : DTS
  36. Format/Info                              : Digital Theater Systems
  37. Format profile                           : MA / Core
  38. Codec ID                                 : A_DTS
  39. Duration                                 : 1 h 48 min
  40. Bit rate mode                            : Variable / Constant
  41. Bit rate                                 : 3 730 kb/s / 1 509 kb/s
  42. Channel(s)                               : 6 channels
  43. Channel positions                        : Front: L C R, Side: L R, LFE
  44. Sampling rate                            : 48.0 kHz
  45. Frame rate                               : 93.750 FPS (512 SPF)
  46. Bit depth                                : 24 bits
  47. Compression mode                         : Lossless / Lossy
  48. Stream size                              : 2.82 GiB (10%)
  49. Title                                    : Godard.Mon.Amour.2017.FRENCH.1080p.BluRay.REMUX.AVC.DTS-HD.MA.5.1-FGT
  50. Language                                 : French
  51. Default                                  : Yes
  52. Forced                                   : No

  53. Audio #2
  54. ID                                       : 3
  55. Format                                   : DTS
  56. Format/Info                              : Digital Theater Systems
  57. Codec ID                                 : A_DTS
  58. Duration                                 : 1 h 48 min
  59. Bit rate mode                            : Constant
  60. Bit rate                                 : 1 509 kb/s
  61. Channel(s)                               : 6 channels
  62. Channel positions                        : Front: L C R, Side: L R, LFE
  63. Sampling rate                            : 48.0 kHz
  64. Frame rate                               : 93.750 FPS (512 SPF)
  65. Bit depth                                : 24 bits
  66. Compression mode                         : Lossy
  67. Stream size                              : 1.14 GiB (4%)
  68. Title                                    : Godard.Mon.Amour.2017.FRENCH.1080p.BluRay.REMUX.AVC.DTS-HD.MA.5.1-FGT
  69. Language                                 : French
  70. Default                                  : No
  71. Forced                                   : No

  72. Text
  73. ID                                       : 4
  74. Format                                   : PGS
  75. Muxing mode                              : zlib
  76. Codec ID                                 : S_HDMV/PGS
  77. Codec ID/Info                            : Picture based subtitle format used on BDs/HD-DVDs
  78. Duration                                 : 1 h 46 min
  79. Bit rate                                 : 38.9 kb/s
  80. Count of elements                        : 1910
  81. Stream size                              : 29.5 MiB (0%)
  82. Title                                    : English-PGS
  83. Language                                 : English
  84. Default                                  : Yes
  85. Forced                                   : Yes

  86. Menu
  87. 00:00:00.000                             : en:Chapter 01
  88. 00:13:17.338                             : en:Chapter 02
  89. 00:23:29.991                             : en:Chapter 03
  90. 00:34:56.552                             : en:Chapter 04
  91. 00:43:50.586                             : en:Chapter 05
  92. 00:52:52.794                             : en:Chapter 06
  93. 01:04:52.138                             : en:Chapter 07
  94. 01:10:11.123                             : en:Chapter 08
  95. 01:27:07.472                             : en:Chapter 09
  96. 01:39:46.271                             : en:Chapter 10
复制代码

复制代码

畏敬/情陷高达 Godard.Mon.Amour.2017.FRENCH.1080p.BluRay.REMUX.AVC.DTS-HD.MA.5.1-FGT 29.42GB-2.png 畏敬/情陷高达 Godard.Mon.Amour.2017.FRENCH.1080p.BluRay.REMUX.AVC.DTS-HD.MA.5.1-FGT 29.42GB-3.png 畏敬/情陷高达 Godard.Mon.Amour.2017.FRENCH.1080p.BluRay.REMUX.AVC.DTS-HD.MA.5.1-FGT 29.42GB-4.png







回复

使用道具 举报

懒得打字嘛,点击右侧快捷回复 【右侧内容,后台自定义】
您需要登录后才可以回帖 登录 | 立即加入

本版积分规则

Archiver|小黑屋| 蓝光电影网 |网站地图

Copyright © 2021 Comsenz Inc. Powered by 蓝光电影网

蓝光电影网

本站内容由用户自主分享和转载自互联网,转载目的在于传递更多信息,并不代表本网赞同其观点和对其真实性负责。

如有侵权、违反国家法律政策行为,请联系我们,我们会第一时间及时清除和处理!

举报反馈邮箱:[email protected]

快速回复 返回顶部 返回列表