找回密码

蓝光电影网

查看: 537|回复: 0

[剧情] 折翅蝴蝶 Butterfly.Caught.2017.1080p.BluRay.REMUX.AVC.DTS-HD.MA.5.1-FGT 21.63GB

[复制链接]
蓝光币
623
发表于 2018-9-12 00:23:05 | 显示全部楼层 |阅读模式

折翅蝴蝶 Butterfly.Caught.2017.1080p.BluRay.REMUX.AVC.DTS-HD.MA.5.1-FGT 21.63GB-1.jpg
◎译  名 折翅蝴蝶
◎片  名 Butterfly Caught
◎年  代 2017
◎产  地 美国
◎类  别 剧情
◎语  言 英语
◎上映日期 2017-10-06(美国)
◎豆瓣评分 /10 from 0 users
◎豆瓣链接 https://movie.douban.com/subject/26634835/
◎导  演 Manny Rodriguez Jr.
◎主  演 艾莉克斯·斯甘巴蒂 Alexandra Sgambati
      洁思·雅各布斯 Jess Jacobs
      阿比盖尔·克莱因 Abigail Klein
      乔纳森·斯卡奇 Johnathon Schaech
      托尼·普拉纳 Tony Plana
      Grant Liffmann
      Adam Ambruso
      Jake Olson
      钱德勒·马西 Chandler Massey
      Wolfgang Bodison
      多米尼克·博加特 Dominic Bogart
      威尔·华莱士 Will Wallace

◎简  介

  三位有理想的美丽女演员踏上了进入合作剧烈的洛杉矶演艺圈的征程,却发现通往明星之路的价格极为高昂。

  1. Video
  2. ID                                       : 1
  3. Format                                   : AVC
  4. Format/Info                              : Advanced Video Codec
  5. Format profile                           : [url=/cdn-cgi/l/email-protection][email protected][/url]
  6. Format settings                          : CABAC / 4 Ref Frames
  7. Format settings, CABAC                   : Yes
  8. Format settings, ReFrames                : 4 frames
  9. Codec ID                                 : V_MPEG4/ISO/AVC
  10. Duration                                 : 1 h 47 min
  11. Bit rate mode                            : Variable
  12. Bit rate                                 : 23.9 Mb/s
  13. Maximum bit rate                         : 38.0 Mb/s
  14. Width                                    : 1 920 pixels
  15. Height                                   : 1 080 pixels
  16. Display aspect ratio                     : 16:9
  17. Frame rate mode                          : Constant
  18. Frame rate                               : 23.976 (24000/1001) FPS
  19. Color space                              : YUV
  20. Chroma subsampling                       : 4:2:0
  21. Bit depth                                : 8 bits
  22. Scan type                                : Progressive
  23. Bits/(Pixel*Frame)                       : 0.481
  24. Stream size                              : 17.9 GiB (83%)
  25. Title                                    : Butterfly.Caught.2017.1080p.BluRay.REMUX.AVC.DTS-HD.MA.5.1-FGT
  26. Language                                 : English
  27. Default                                  : No
  28. Forced                                   : No

  29. Audio #1
  30. ID                                       : 2
  31. Format                                   : DTS
  32. Format/Info                              : Digital Theater Systems
  33. Format profile                           : MA / Core
  34. Codec ID                                 : A_DTS
  35. Duration                                 : 1 h 47 min
  36. Bit rate mode                            : Variable / Constant
  37. Bit rate                                 : 3 407 kb/s / 1 509 kb/s
  38. Channel(s)                               : 6 channels
  39. Channel positions                        : Front: L C R, Side: L R, LFE
  40. Sampling rate                            : 48.0 kHz
  41. Frame rate                               : 93.750 FPS (512 SPF)
  42. Bit depth                                : 24 bits
  43. Compression mode                         : Lossless / Lossy
  44. Stream size                              : 2.55 GiB (12%)
  45. Title                                    : Butterfly.Caught.2017.1080p.BluRay.REMUX.AVC.DTS-HD.MA.5.1-FGT
  46. Language                                 : English
  47. Default                                  : Yes
  48. Forced                                   : No

  49. Audio #2
  50. ID                                       : 3
  51. Format                                   : DTS
  52. Format/Info                              : Digital Theater Systems
  53. Codec ID                                 : A_DTS
  54. Duration                                 : 1 h 47 min
  55. Bit rate mode                            : Constant
  56. Bit rate                                 : 1 509 kb/s
  57. Channel(s)                               : 6 channels
  58. Channel positions                        : Front: L C R, Side: L R, LFE
  59. Sampling rate                            : 48.0 kHz
  60. Frame rate                               : 93.750 FPS (512 SPF)
  61. Bit depth                                : 24 bits
  62. Compression mode                         : Lossy
  63. Stream size                              : 1.13 GiB (5%)
  64. Title                                    : Butterfly.Caught.2017.1080p.BluRay.REMUX.AVC.DTS-HD.MA.5.1-FGT
  65. Language                                 : English
  66. Default                                  : No
  67. Forced                                   : No

  68. Text
  69. ID                                       : 4
  70. Format                                   : PGS
  71. Muxing mode                              : zlib
  72. Codec ID                                 : S_HDMV/PGS
  73. Codec ID/Info                            : Picture based subtitle format used on BDs/HD-DVDs
  74. Duration                                 : 1 h 43 min
  75. Bit rate                                 : 74.2 kb/s
  76. Count of elements                        : 3104
  77. Stream size                              : 55.0 MiB (0%)
  78. Title                                    : English-PGS
  79. Language                                 : English
  80. Default                                  : Yes
  81. Forced                                   : No

  82. Menu
  83. 00:00:00.000                             : en:Chapter 01
  84. 00:09:16.722                             : en:Chapter 02
  85. 00:20:26.725                             : en:Chapter 03
  86. 00:29:50.955                             : en:Chapter 04
  87. 00:41:21.896                             : en:Chapter 05
  88. 00:50:01.999                             : en:Chapter 06
  89. 01:01:03.242                             : en:Chapter 07
  90. 01:09:17.528                             : en:Chapter 08
  91. 01:19:58.293                             : en:Chapter 09
  92. 01:30:00.978                             : en:Chapter 10
  93. 01:41:15.819                             : en:Chapter 11
  94. 01:47:16.763                             : en:Chapter 12
复制代码

复制代码

折翅蝴蝶 Butterfly.Caught.2017.1080p.BluRay.REMUX.AVC.DTS-HD.MA.5.1-FGT 21.63GB-2.png 折翅蝴蝶 Butterfly.Caught.2017.1080p.BluRay.REMUX.AVC.DTS-HD.MA.5.1-FGT 21.63GB-3.png 折翅蝴蝶 Butterfly.Caught.2017.1080p.BluRay.REMUX.AVC.DTS-HD.MA.5.1-FGT 21.63GB-4.png







回复

使用道具 举报

懒得打字嘛,点击右侧快捷回复 【右侧内容,后台自定义】
您需要登录后才可以回帖 登录 | 立即加入

本版积分规则

Archiver|小黑屋| 蓝光电影网 |网站地图

Copyright © 2021 Comsenz Inc. Powered by 蓝光电影网

蓝光电影网

本站内容由用户自主分享和转载自互联网,转载目的在于传递更多信息,并不代表本网赞同其观点和对其真实性负责。

如有侵权、违反国家法律政策行为,请联系我们,我们会第一时间及时清除和处理!

举报反馈邮箱:[email protected]

快速回复 返回顶部 返回列表