找回密码

蓝光电影网

查看: 1420|回复: 3

罗宾汉/侠盗·骄雄 Robin.Hood.2010.DC.2160p.BluRay.REMUX.HEVC.DTS-X.7.1-FGT 64.16GB

[复制链接]
蓝光币
623
发表于 2018-9-12 09:47:27 | 显示全部楼层 |阅读模式

罗宾汉/侠盗·骄雄 Robin.Hood.2010.DC.2160p.BluRay.REMUX.HEVC.DTS-X.7.1-FGT 64.16GB-1.jpg
◎译  名 罗宾汉/侠盗·骄雄(港)
◎片  名 Robin Hood
◎年  代 2010
◎产  地 美国/英国
◎类  别 行动/冒险/剧情
◎语  言 英语
◎上映日期 2010-05-12(英国)/2010-06-11(中国大陆)
◎豆瓣评分 6.7/10 from 21,399 users
◎豆瓣链接 https://movie.douban.com/subject/2062677/
◎片  长 140 分钟/131 分钟(戛纳电影节)/156 分钟(导演剪辑版)
◎导  演 雷德利·斯科特 Ridley Scott
◎主  演 罗素·克劳 Russell Crowe
      凯特·布兰切特 Cate Blanchett
      威廉·赫特 William Hurt
      马克·斯特朗 Mark Strong
      马克斯·冯·西多 Max von Sydow
      奥斯卡·伊撒克 Oscar Isaac
      马修·麦克费登 Matthew Macfadyen
      丹尼·赫斯顿 Danny Huston
      艾琳·阿特金斯 Eileen Atkins
      马克·阿蒂 Mark Addy
      蕾雅·赛杜 Léa Seydoux

◎简  介

  13世纪,大英帝国在狮心王理查一世(丹尼·赫斯顿 Danny Huston 饰)的率领下与来犯的法国军队展开酣战。力大无穷、勇猛善战的罗宾·朗斯特莱德(罗素·克劳 Russell Crowe 饰)是这群英国战士中的一员,作为射手的他曾随理查加入过十字军东征,在对法的战争中也表示英勇。可是狮心王遭受诡计刺杀,罗宾接管与国王一同遇刺的罗伯特?洛克斯利的遗言,摇身酿成罗伯特回到英国。在王宫骗吃骗喝事后,罗宾如约来到罗伯特的故乡诺丁汉,他不但获得罗伯特父亲的准予继续假扮其儿子,还意外得知了自己的身世之谜。与此同时,法国野心勃勃,觊觎着英国的国土,而英国国内又乱相丛生,危机四伏。
  在暗流涌动的大时代下,罗宾似乎了然了自己的保存使命,未几后他拿起长弓,投入深林,开启了耐久不衰的罗宾汉的传闻……

  1. Video
  2. ID                                       : 1
  3. Format                                   : HEVC
  4. Format/Info                              : High Efficiency Video Coding
  5. Commercial name                          : HDR10
  6. Format profile                           : Main [url=/cdn-cgi/l/email-protection][email protected][/url]@High
  7. Codec ID                                 : V_MPEGH/ISO/HEVC
  8. Duration                                 : 2 h 35 min
  9. Bit rate                                 : 48.4 Mb/s
  10. Width                                    : 3 840 pixels
  11. Height                                   : 2 160 pixels
  12. Display aspect ratio                     : 16:9
  13. Frame rate mode                          : Constant
  14. Frame rate                               : 23.976 (24000/1001) FPS
  15. Color space                              : YUV
  16. Chroma subsampling                       : 4:2:0 (Type 2)
  17. Bit depth                                : 10 bits
  18. Bits/(Pixel*Frame)                       : 0.243
  19. Stream size                              : 52.7 GiB (82%)
  20. Title                                    : Robin.Hood.2010.DC.2160p.BluRay.REMUX.HEVC.DTS-X.7.1-FGT
  21. Writing library                          : ATEME Titan File 3.8.16 (4.8.16.0)
  22. Default                                  : Yes
  23. Forced                                   : No
  24. Color range                              : Limited
  25. Color primaries                          : BT.2020
  26. Transfer characteristics                 : PQ
  27. Matrix coefficients                      : BT.2020 non-constant
  28. Mastering display color primaries        : Display P3
  29. Mastering display luminance              : min: 0.0050 cd/m2, max: 1000 cd/m2
  30. Maximum Content Light Level              : 1001 cd/m2
  31. Maximum Frame-Average Light Level        : 328 cd/m2

  32. Audio #1
  33. ID                                       : 2
  34. Format                                   : DTS
  35. Format/Info                              : Digital Theater Systems
  36. Format profile                           : X / MA / Core
  37. Codec ID                                 : A_DTS
  38. Duration                                 : 2 h 35 min
  39. Bit rate mode                            : Variable / Variable / Constant
  40. Bit rate                                 : 7 421 kb/s / 7 421 kb/s / 1 509 kb/s
  41. Channel(s)                               : Object Based / 8 channels / 6 channels
  42. Channel positions                        : Object Based / Front: L C R, Side: L R, Back: L R, LFE / Front: L C R, Side: L R, LFE
  43. Sampling rate                            :  / 48.0 kHz / 48.0 kHz
  44. Frame rate                               : 93.750 FPS (512 SPF)
  45. Bit depth                                :  / 24 bits / 24 bits
  46. Compression mode                         :  / Lossless / Lossy
  47. Stream size                              : 8.08 GiB (13%)
  48. Title                                    : Robin.Hood.2010.DC.2160p.BluRay.REMUX.HEVC.DTS-X.7.1-FGT
  49. Language                                 : English
  50. Default                                  : Yes
  51. Forced                                   : No

  52. Audio #2
  53. ID                                       : 3
  54. Format                                   : DTS
  55. Format/Info                              : Digital Theater Systems
  56. Codec ID                                 : A_DTS
  57. Duration                                 : 2 h 35 min
  58. Bit rate mode                            : Constant
  59. Bit rate                                 : 768 kb/s
  60. Channel(s)                               : 6 channels
  61. Channel positions                        : Front: L C R, Side: L R, LFE
  62. Sampling rate                            : 48.0 kHz
  63. Frame rate                               : 93.750 FPS (512 SPF)
  64. Bit depth                                : 24 bits
  65. Compression mode                         : Lossy
  66. Stream size                              : 856 MiB (1%)
  67. Title                                    : Robin.Hood.2010.DC.2160p.BluRay.REMUX.HEVC.DTS-X.7.1-FGT
  68. Language                                 : French
  69. Default                                  : No
  70. Forced                                   : No

  71. Audio #3
  72. ID                                       : 4
  73. Format                                   : DTS
  74. Format/Info                              : Digital Theater Systems
  75. Codec ID                                 : A_DTS
  76. Duration                                 : 2 h 35 min
  77. Bit rate mode                            : Constant
  78. Bit rate                                 : 768 kb/s
  79. Channel(s)                               : 6 channels
  80. Channel positions                        : Front: L C R, Side: L R, LFE
  81. Sampling rate                            : 48.0 kHz
  82. Frame rate                               : 93.750 FPS (512 SPF)
  83. Bit depth                                : 24 bits
  84. Compression mode                         : Lossy
  85. Stream size                              : 856 MiB (1%)
  86. Title                                    : Robin.Hood.2010.DC.2160p.BluRay.REMUX.HEVC.DTS-X.7.1-FGT
  87. Language                                 : Spanish
  88. Default                                  : No
  89. Forced                                   : No

  90. Audio #4
  91. ID                                       : 5
  92. Format                                   : DTS
  93. Format/Info                              : Digital Theater Systems
  94. Codec ID                                 : A_DTS
  95. Duration                                 : 2 h 35 min
  96. Bit rate mode                            : Constant
  97. Bit rate                                 : 768 kb/s
  98. Channel(s)                               : 6 channels
  99. Channel positions                        : Front: L C R, Side: L R, LFE
  100. Sampling rate                            : 48.0 kHz
  101. Frame rate                               : 93.750 FPS (512 SPF)
  102. Bit depth                                : 24 bits
  103. Compression mode                         : Lossy
  104. Stream size                              : 856 MiB (1%)
  105. Title                                    : Robin.Hood.2010.DC.2160p.BluRay.REMUX.HEVC.DTS-X.7.1-FGT
  106. Language                                 : Japanese
  107. Default                                  : No
  108. Forced                                   : No

  109. Audio #5
  110. ID                                       : 6
  111. Format                                   : DTS
  112. Format/Info                              : Digital Theater Systems
  113. Codec ID                                 : A_DTS
  114. Duration                                 : 2 h 35 min
  115. Bit rate mode                            : Constant
  116. Bit rate                                 : 768 kb/s
  117. Channel(s)                               : 6 channels
  118. Channel positions                        : Front: L C R, Side: L R, LFE
  119. Sampling rate                            : 48.0 kHz
  120. Frame rate                               : 93.750 FPS (512 SPF)
  121. Bit depth                                : 24 bits
  122. Compression mode                         : Lossy
  123. Stream size                              : 856 MiB (1%)
  124. Title                                    : Robin.Hood.2010.DC.2160p.BluRay.REMUX.HEVC.DTS-X.7.1-FGT
  125. Language                                 : Portuguese
  126. Default                                  : No
  127. Forced                                   : No

  128. Text #1
  129. ID                                       : 7
  130. Format                                   : PGS
  131. Muxing mode                              : zlib
  132. Codec ID                                 : S_HDMV/PGS
  133. Codec ID/Info                            : Picture based subtitle format used on BDs/HD-DVDs
  134. Duration                                 : 2 h 34 min
  135. Bit rate                                 : 27.8 kb/s
  136. Count of elements                        : 3209
  137. Stream size                              : 30.6 MiB (0%)
  138. Title                                    : English-PGS
  139. Language                                 : English
  140. Default                                  : Yes
  141. Forced                                   : No

  142. Text #2
  143. ID                                       : 8
  144. Format                                   : PGS
  145. Muxing mode                              : zlib
  146. Codec ID                                 : S_HDMV/PGS
  147. Codec ID/Info                            : Picture based subtitle format used on BDs/HD-DVDs
  148. Duration                                 : 2 h 34 min
  149. Bit rate                                 : 26.0 kb/s
  150. Count of elements                        : 2798
  151. Stream size                              : 28.8 MiB (0%)
  152. Title                                    : French-PGS
  153. Language                                 : French
  154. Default                                  : No
  155. Forced                                   : No

  156. Text #3
  157. ID                                       : 9
  158. Format                                   : PGS
  159. Muxing mode                              : zlib
  160. Codec ID                                 : S_HDMV/PGS
  161. Codec ID/Info                            : Picture based subtitle format used on BDs/HD-DVDs
  162. Duration                                 : 2 h 34 min
  163. Bit rate                                 : 25.0 kb/s
  164. Count of elements                        : 2931
  165. Stream size                              : 27.7 MiB (0%)
  166. Title                                    : Spanish-PGS
  167. Language                                 : Spanish
  168. Default                                  : No
  169. Forced                                   : No

  170. Text #4
  171. ID                                       : 10
  172. Format                                   : PGS
  173. Muxing mode                              : zlib
  174. Codec ID                                 : S_HDMV/PGS
  175. Codec ID/Info                            : Picture based subtitle format used on BDs/HD-DVDs
  176. Duration                                 : 2 h 34 min
  177. Bit rate                                 : 19.5 kb/s
  178. Count of elements                        : 2909
  179. Stream size                              : 21.6 MiB (0%)
  180. Title                                    : Japanese-PGS
  181. Language                                 : Japanese
  182. Default                                  : No
  183. Forced                                   : No

  184. Text #5
  185. ID                                       : 11
  186. Format                                   : PGS
  187. Muxing mode                              : zlib
  188. Codec ID                                 : S_HDMV/PGS
  189. Codec ID/Info                            : Picture based subtitle format used on BDs/HD-DVDs
  190. Duration                                 : 2 h 34 min
  191. Bit rate                                 : 25.9 kb/s
  192. Count of elements                        : 2944
  193. Stream size                              : 28.7 MiB (0%)
  194. Title                                    : Portuguese-PGS
  195. Language                                 : Portuguese
  196. Default                                  : No
  197. Forced                                   : No

  198. Text #6
  199. ID                                       : 12
  200. Format                                   : PGS
  201. Muxing mode                              : zlib
  202. Codec ID                                 : S_HDMV/PGS
  203. Codec ID/Info                            : Picture based subtitle format used on BDs/HD-DVDs
  204. Duration                                 : 2 h 34 min
  205. Bit rate                                 : 668 b/s
  206. Count of elements                        : 111
  207. Stream size                              : 757 KiB (0%)
  208. Title                                    : French-FORCED-PGS
  209. Language                                 : French
  210. Default                                  : No
  211. Forced                                   : No

  212. Text #7
  213. ID                                       : 13
  214. Format                                   : PGS
  215. Muxing mode                              : zlib
  216. Codec ID                                 : S_HDMV/PGS
  217. Codec ID/Info                            : Picture based subtitle format used on BDs/HD-DVDs
  218. Duration                                 : 2 h 34 min
  219. Bit rate                                 : 1 142 b/s
  220. Count of elements                        : 211
  221. Stream size                              : 1.27 MiB (0%)
  222. Title                                    : Spanish-FORCED-PGS
  223. Language                                 : Spanish
  224. Default                                  : No
  225. Forced                                   : No

  226. Text #8
  227. ID                                       : 14
  228. Format                                   : PGS
  229. Muxing mode                              : zlib
  230. Codec ID                                 : S_HDMV/PGS
  231. Codec ID/Info                            : Picture based subtitle format used on BDs/HD-DVDs
  232. Duration                                 : 2 h 33 min
  233. Bit rate                                 : 978 b/s
  234. Count of elements                        : 222
  235. Stream size                              : 1.08 MiB (0%)
  236. Title                                    : Japanese-FORCED-PGS
  237. Language                                 : Japanese
  238. Default                                  : No
  239. Forced                                   : No

  240. Menu
  241. 00:00:00.000                             : :Chapter 1
  242. 00:12:05.975                             : :Chapter 2
  243. 00:18:27.439                             : :Chapter 3
  244. 00:25:11.551                             : :Chapter 4
  245. 00:33:31.425                             : :Chapter 5
  246. 00:38:36.981                             : :Chapter 6
  247. 00:48:42.586                             : :Chapter 7
  248. 00:57:11.886                             : :Chapter 8
  249. 01:04:14.308                             : :Chapter 9
  250. 01:10:41.612                             : :Chapter 10
  251. 01:23:24.624                             : :Chapter 11
  252. 01:32:17.114                             : :Chapter 12
  253. 01:40:30.148                             : :Chapter 13
  254. 01:49:15.882                             : :Chapter 14
  255. 01:56:06.417                             : :Chapter 15
  256. 02:02:29.091                             : :Chapter 16
  257. 02:09:20.669                             : :Chapter 17
  258. 02:18:21.417                             : :Chapter 18
  259. 02:22:48.684                             : :Chapter 19
  260. 02:27:08.611                             : :Chapter 20
复制代码

复制代码

罗宾汉/侠盗·骄雄 Robin.Hood.2010.DC.2160p.BluRay.REMUX.HEVC.DTS-X.7.1-FGT 64.16GB-2.png 罗宾汉/侠盗·骄雄 Robin.Hood.2010.DC.2160p.BluRay.REMUX.HEVC.DTS-X.7.1-FGT 64.16GB-3.png 罗宾汉/侠盗·骄雄 Robin.Hood.2010.DC.2160p.BluRay.REMUX.HEVC.DTS-X.7.1-FGT 64.16GB-4.png







回复

使用道具 举报

蓝光币
821
发表于 2018-9-13 22:18:43 | 显示全部楼层
强烈支持楼主ing……
回复 支持 反对

使用道具 举报

蓝光币
189
发表于 2018-9-14 08:33:49 | 显示全部楼层
强烈支持楼主ing……
回复 支持 反对

使用道具 举报

蓝光币
326
发表于 2018-9-14 11:53:51 | 显示全部楼层
看到这帖子真是高兴!
回复 支持 反对

使用道具 举报

懒得打字嘛,点击右侧快捷回复 【右侧内容,后台自定义】
您需要登录后才可以回帖 登录 | 立即加入

本版积分规则

Archiver|小黑屋| 蓝光电影网 |网站地图

Copyright © 2021 Comsenz Inc. Powered by 蓝光电影网

蓝光电影网

本站内容由用户自主分享和转载自互联网,转载目的在于传递更多信息,并不代表本网赞同其观点和对其真实性负责。

如有侵权、违反国家法律政策行为,请联系我们,我们会第一时间及时清除和处理!

举报反馈邮箱:[email protected]

快速回复 返回顶部 返回列表