找回密码

蓝光电影网

查看: 1062|回复: 9

克莉丝汀魅力/魅力姬丝汀 Christine.1983.2160p.UHD.BluRay.X265.10bit.HDR.TrueHD.7.1.Atmos-WhiteRhino 23.79GB

[复制链接]
蓝光币
623
发表于 2018-9-12 09:48:08 | 显示全部楼层 |阅读模式

克莉丝汀魅力/魅力姬丝汀 Christine.1983.2160p.UHD.BluRay.X265.10bit.HDR.TrueHD.7.1.Atmos-WhiteRhino 23.79GB-1.jpg
◎译  名 克莉丝汀魅力/魅力姬丝汀
◎片  名 Christine
◎年  代 1983
◎产  地 美国
◎类  别 可骇
◎语  言 英语
◎上映日期 1983-12-09
◎豆瓣评分 7.1/10 from 613 users
◎豆瓣链接 https://movie.douban.com/subject/1297421/
◎片  长 110 分钟
◎导  演 约翰·卡朋特 John Carpenter
◎主  演 基斯·戈登 Keith Gordon
      约翰·斯托克韦尔 John Stockwell
      亚历姗卓拉·保罗 Alexandra Paul
      罗伯特·普罗斯基 Robert Prosky
      哈利·戴恩·斯坦通 Harry Dean Stanton
      Christine Belford
      罗伯茨·布洛瑟姆 Roberts Blossom
      William Ostrander
      David Spielberg
      Malcolm Danare
      Steven Tash
      Stuart Charno
      凯利·普雷斯顿 Kelly Preston
      Marc Poppel
      Robert Darnell

◎简  介

  阿尼?科宁汉姆(Keith Gordon 饰)是某所高中内极不起眼的门生,他沉默寡言、木讷外向。怙恃对他没有过量关注,身旁只要女友丽(Alexandra Paul 饰)和洽哥们丹尼斯(John Stockwell 饰),再无其他朋友。
  某天,阿尼看上一辆1958年产的二手普利茅斯?复仇女神(Plymouth Fury),他立即爱上了这辆车,绝不犹豫将其买了下来。可是阿尼的举止渐突变得希奇起来,他不在关心方圆天下,而是将一切留意力都放在这辆名为“克莉丝汀”的车上。当领会到克莉丝汀的布景以后,丽和丹尼斯决议摧毁汽车,拯救阿尼。但是克莉丝汀似乎对挡在她眼前的人绝不包涵……

  1. Video
  2. ID                                       : 1
  3. Format                                   : HEVC
  4. Format/Info                              : High Efficiency Video Coding
  5. Commercial name                          : HDR10
  6. Format profile                           : Main [url=/cdn-cgi/l/email-protection][email protected][/url]@High
  7. Codec ID                                 : V_MPEGH/ISO/HEVC
  8. Duration                                 : 1 h 50 min
  9. Bit rate                                 : 24.5 Mb/s
  10. Width                                    : 3 840 pixels
  11. Height                                   : 1 608 pixels
  12. Display aspect ratio                     : 2.40:1
  13. Frame rate mode                          : Constant
  14. Frame rate                               : 23.976 (24000/1001) FPS
  15. Color space                              : YUV
  16. Chroma subsampling                       : 4:2:0 (Type 2)
  17. Bit depth                                : 10 bits
  18. Bits/(Pixel*Frame)                       : 0.166
  19. Stream size                              : 18.8 GiB (79%)
  20. Writing library                          : x265 2.8+10-703eade86b53:[Windows][MSVC 1914][64 bit] 10bit
  21. Encoding settings                        : cpuid=1111039 / frame-threads=4 / numa-pools=20 / wpp / no-pmode / no-pme / no-psnr / no-ssim / log-level=2 / input-csp=1 / input-res=3840x1608 / interlace=0 / total-frames=158256 / level-idc=51 / high-tier=1 / uhd-bd=0 / ref=4 / no-allow-non-conformance / repeat-headers / annexb / aud / hrd / info / hash=0 / no-temporal-layers / no-open-gop / min-keyint=1 / keyint=24 / gop-lookahead=0 / bframes=4 / b-adapt=2 / b-pyramid / bframe-bias=0 / rc-lookahead=25 / lookahead-slices=4 / scenecut=40 / radl=0 / no-intra-refresh / ctu=64 / min-cu-size=8 / rect / no-amp / max-tu-size=32 / tu-inter-depth=1 / tu-intra-depth=1 / limit-tu=0 / rdoq-level=2 / dynamic-rd=0.00 / no-ssim-rd / signhide / no-tskip / nr-intra=0 / nr-inter=0 / no-constrained-intra / no-strong-intra-smoothing / max-merge=3 / limit-refs=3 / limit-modes / me=3 / subme=3 / merange=57 / temporal-mvp / weightp / no-weightb / no-analyze-src-pics / deblock=-3:-3 / no-sao / no-sao-non-deblock / rd=4 / no-early-skip / rskip / no-fast-intra / no-tskip-fast / no-cu-lossless / no-b-intra / no-splitrd-skip / rdpenalty=0 / psy-rd=2.00 / psy-rdoq=1.00 / no-rd-refine / no-lossless / cbqpoffs=0 / crqpoffs=0 / rc=crf / crf=18.0 / qcomp=0.60 / qpstep=4 / stats-write=0 / stats-read=0 / vbv-maxrate=160000 / vbv-bufsize=160000 / vbv-init=0.9 / crf-max=0.0 / crf-min=0.0 / ipratio=1.40 / pbratio=1.30 / aq-mode=1 / aq-strength=1.00 / cutree / zone-count=0 / no-strict-cbr / qg-size=32 / no-rc-grain / qpmax=69 / qpmin=0 / no-const-vbv / sar=1 / overscan=0 / videoformat=5 / range=0 / colorprim=9 / transfer=16 / colormatrix=9 / chromaloc=1 / chromaloc-top=2 / chromaloc-bottom=2 / display-window=0 / master-display=G(13250,34500)B(7500,3000)R(34000,16000)WP(15635,16450)L(40000000,50) / max-cll=1951,701 / min-luma=0 / max-luma=1023 / log2-max-poc-lsb=8 / vui-timing-info / vui-hrd-info / slices=1 / no-opt-qp-pps / no-opt-ref-list-length-pps / no-multi-pass-opt-rps / scenecut-bias=0.05 / no-opt-cu-delta-qp / no-aq-motion / hdr / hdr-opt / no-dhdr10-opt / no-idr-recovery-sei / analysis-reuse-level=5 / scale-factor=0 / refine-intra=0 / refine-inter=0 / refine-mv=0 / no-limit-sao / ctu-info=0 / no-lowpass-dct / refine-mv-type=0 / copy-pic=1 / max-ausize-factor=1.0 / no-dynamic-refine / no-single-sei
  22. Default                                  : Yes
  23. Forced                                   : No
  24. Color range                              : Limited
  25. Color primaries                          : BT.2020
  26. Transfer characteristics                 : PQ
  27. Matrix coefficients                      : BT.2020 non-constant
  28. Mastering display color primaries        : Display P3
  29. Mastering display luminance              : min: 0.0050 cd/m2, max: 4000 cd/m2
  30. Maximum Content Light Level              : 1951 cd/m2
  31. Maximum Frame-Average Light Level        : 701 cd/m2

  32. Audio #1
  33. ID                                       : 2
  34. Format                                   : TrueHD
  35. Format profile                           : TrueHD+Atmos / TrueHD
  36. Codec ID                                 : A_TRUEHD
  37. Duration                                 : 1 h 50 min
  38. Bit rate mode                            : Variable
  39. Bit rate                                 : 3 362 kb/s
  40. Maximum bit rate                         : 5 004 kb/s
  41. Channel(s)                               : Object Based / 8 channels
  42. Channel positions                        : Object Based / Front: L C R, Side: L R, Back: L R, LFE
  43. Sampling rate                            :  / 48.0 kHz
  44. Frame rate                               : 1 200.000 FPS (40 SPF)
  45. Compression mode                         : Lossless
  46. Stream size                              : 2.58 GiB (11%)
  47. Language                                 : English
  48. Default                                  : Yes
  49. Forced                                   : No

  50. Audio #2
  51. ID                                       : 3
  52. Format                                   : AC-3
  53. Format/Info                              : Audio Coding 3
  54. Codec ID                                 : A_AC3
  55. Duration                                 : 1 h 50 min
  56. Bit rate mode                            : Constant
  57. Bit rate                                 : 640 kb/s
  58. Channel(s)                               : 6 channels
  59. Channel positions                        : Front: L C R, Side: L R, LFE
  60. Sampling rate                            : 48.0 kHz
  61. Frame rate                               : 31.250 FPS (1536 SPF)
  62. Bit depth                                : 16 bits
  63. Compression mode                         : Lossy
  64. Stream size                              : 504 MiB (2%)
  65. Language                                 : English
  66. Service kind                             : Complete Main
  67. Default                                  : No
  68. Forced                                   : No

  69. Audio #3
  70. ID                                       : 4
  71. Format                                   : DTS
  72. Format/Info                              : Digital Theater Systems
  73. Format profile                           : MA / Core
  74. Codec ID                                 : A_DTS
  75. Duration                                 : 1 h 50 min
  76. Bit rate mode                            : Variable / Constant
  77. Bit rate                                 : 2 203 kb/s / 1 509 kb/s
  78. Channel(s)                               : 6 channels
  79. Channel positions                        : Front: L C R, Side: L R, LFE
  80. Sampling rate                            : 48.0 kHz
  81. Frame rate                               : 93.750 FPS (512 SPF)
  82. Bit depth                                : 16 bits
  83. Compression mode                         : Lossless / Lossy
  84. Stream size                              : 1.69 GiB (7%)
  85. Language                                 : English
  86. Default                                  : No
  87. Forced                                   : No

  88. Text #1
  89. ID                                       : 5
  90. Format                                   : PGS
  91. Muxing mode                              : zlib
  92. Codec ID                                 : S_HDMV/PGS
  93. Codec ID/Info                            : Picture based subtitle format used on BDs/HD-DVDs
  94. Duration                                 : 1 h 49 min
  95. Bit rate                                 : 26.7 kb/s
  96. Count of elements                        : 2299
  97. Stream size                              : 20.8 MiB (0%)
  98. Language                                 : English
  99. Default                                  : No
  100. Forced                                   : No

  101. Text #2
  102. ID                                       : 6
  103. Format                                   : PGS
  104. Muxing mode                              : zlib
  105. Codec ID                                 : S_HDMV/PGS
  106. Codec ID/Info                            : Picture based subtitle format used on BDs/HD-DVDs
  107. Duration                                 : 1 h 41 min
  108. Bit rate                                 : 21.2 kb/s
  109. Count of elements                        : 1655
  110. Stream size                              : 15.3 MiB (0%)
  111. Language                                 : English
  112. Default                                  : No
  113. Forced                                   : No

  114. Text #3
  115. ID                                       : 7
  116. Format                                   : PGS
  117. Muxing mode                              : zlib
  118. Codec ID                                 : S_HDMV/PGS
  119. Codec ID/Info                            : Picture based subtitle format used on BDs/HD-DVDs
  120. Duration                                 : 1 h 49 min
  121. Bit rate                                 : 26.7 kb/s
  122. Count of elements                        : 2299
  123. Stream size                              : 20.8 MiB (0%)
  124. Language                                 : English
  125. Default                                  : No
  126. Forced                                   : No

  127. Text #4
  128. ID                                       : 8
  129. Format                                   : PGS
  130. Muxing mode                              : zlib
  131. Codec ID                                 : S_HDMV/PGS
  132. Codec ID/Info                            : Picture based subtitle format used on BDs/HD-DVDs
  133. Duration                                 : 1 h 41 min
  134. Bit rate                                 : 21.2 kb/s
  135. Count of elements                        : 1661
  136. Stream size                              : 15.3 MiB (0%)
  137. Language                                 : English
  138. Default                                  : No
  139. Forced                                   : No

  140. Text #5
  141. ID                                       : 9
  142. Format                                   : PGS
  143. Muxing mode                              : zlib
  144. Codec ID                                 : S_HDMV/PGS
  145. Codec ID/Info                            : Picture based subtitle format used on BDs/HD-DVDs
  146. Duration                                 : 1 h 49 min
  147. Bit rate                                 : 16.5 kb/s
  148. Count of elements                        : 1689
  149. Stream size                              : 12.9 MiB (0%)
  150. Language                                 : Chinese
  151. Default                                  : No
  152. Forced                                   : No

  153. Text #6
  154. ID                                       : 10
  155. Format                                   : PGS
  156. Muxing mode                              : zlib
  157. Codec ID                                 : S_HDMV/PGS
  158. Codec ID/Info                            : Picture based subtitle format used on BDs/HD-DVDs
  159. Duration                                 : 1 h 45 min
  160. Bit rate                                 : 17.9 kb/s
  161. Count of elements                        : 1437
  162. Stream size                              : 13.5 MiB (0%)
  163. Language                                 : Dutch
  164. Default                                  : No
  165. Forced                                   : No

  166. Text #7
  167. ID                                       : 11
  168. Format                                   : PGS
  169. Muxing mode                              : zlib
  170. Codec ID                                 : S_HDMV/PGS
  171. Codec ID/Info                            : Picture based subtitle format used on BDs/HD-DVDs
  172. Duration                                 : 1 h 45 min
  173. Bit rate                                 : 19.5 kb/s
  174. Count of elements                        : 1557
  175. Stream size                              : 14.6 MiB (0%)
  176. Language                                 : Finnish
  177. Default                                  : No
  178. Forced                                   : No

  179. Text #8
  180. ID                                       : 12
  181. Format                                   : PGS
  182. Muxing mode                              : zlib
  183. Codec ID                                 : S_HDMV/PGS
  184. Codec ID/Info                            : Picture based subtitle format used on BDs/HD-DVDs
  185. Duration                                 : 1 h 45 min
  186. Bit rate                                 : 21.3 kb/s
  187. Count of elements                        : 1871
  188. Stream size                              : 16.0 MiB (0%)
  189. Language                                 : French
  190. Default                                  : No
  191. Forced                                   : No

  192. Text #9
  193. ID                                       : 13
  194. Format                                   : PGS
  195. Muxing mode                              : zlib
  196. Codec ID                                 : S_HDMV/PGS
  197. Codec ID/Info                            : Picture based subtitle format used on BDs/HD-DVDs
  198. Duration                                 : 1 h 45 min
  199. Bit rate                                 : 22.6 kb/s
  200. Count of elements                        : 1715
  201. Stream size                              : 16.9 MiB (0%)
  202. Language                                 : German
  203. Default                                  : No
  204. Forced                                   : No

  205. Text #10
  206. ID                                       : 14
  207. Format                                   : PGS
  208. Muxing mode                              : zlib
  209. Codec ID                                 : S_HDMV/PGS
  210. Codec ID/Info                            : Picture based subtitle format used on BDs/HD-DVDs
  211. Duration                                 : 1 h 48 min
  212. Bit rate                                 : 16.1 kb/s
  213. Count of elements                        : 1691
  214. Stream size                              : 12.4 MiB (0%)
  215. Language                                 : Hebrew
  216. Default                                  : No
  217. Forced                                   : No

  218. Text #11
  219. ID                                       : 15
  220. Format                                   : PGS
  221. Muxing mode                              : zlib
  222. Codec ID                                 : S_HDMV/PGS
  223. Codec ID/Info                            : Picture based subtitle format used on BDs/HD-DVDs
  224. Duration                                 : 1 h 48 min
  225. Bit rate                                 : 17.8 kb/s
  226. Count of elements                        : 2191
  227. Stream size                              : 13.8 MiB (0%)
  228. Language                                 : Hindi
  229. Default                                  : No
  230. Forced                                   : No

  231. Text #12
  232. ID                                       : 16
  233. Format                                   : PGS
  234. Muxing mode                              : zlib
  235. Codec ID                                 : S_HDMV/PGS
  236. Codec ID/Info                            : Picture based subtitle format used on BDs/HD-DVDs
  237. Duration                                 : 1 h 45 min
  238. Bit rate                                 : 21.0 kb/s
  239. Count of elements                        : 1703
  240. Stream size                              : 15.7 MiB (0%)
  241. Language                                 : Italian
  242. Default                                  : No
  243. Forced                                   : No

  244. Text #13
  245. ID                                       : 17
  246. Format                                   : PGS
  247. Muxing mode                              : zlib
  248. Codec ID                                 : S_HDMV/PGS
  249. Codec ID/Info                            : Picture based subtitle format used on BDs/HD-DVDs
  250. Duration                                 : 1 h 44 min
  251. Bit rate                                 : 13.8 kb/s
  252. Count of elements                        : 1483
  253. Stream size                              : 10.3 MiB (0%)
  254. Language                                 : Japanese
  255. Default                                  : No
  256. Forced                                   : No

  257. Text #14
  258. ID                                       : 18
  259. Format                                   : PGS
  260. Muxing mode                              : zlib
  261. Codec ID                                 : S_HDMV/PGS
  262. Codec ID/Info                            : Picture based subtitle format used on BDs/HD-DVDs
  263. Duration                                 : 1 h 31 min
  264. Bit rate                                 : 248 b/s
  265. Count of elements                        : 24
  266. Stream size                              : 166 KiB (0%)
  267. Language                                 : Japanese
  268. Default                                  : No
  269. Forced                                   : No

  270. Text #15
  271. ID                                       : 19
  272. Format                                   : PGS
  273. Muxing mode                              : zlib
  274. Codec ID                                 : S_HDMV/PGS
  275. Codec ID/Info                            : Picture based subtitle format used on BDs/HD-DVDs
  276. Duration                                 : 1 h 45 min
  277. Bit rate                                 : 15.8 kb/s
  278. Count of elements                        : 1661
  279. Stream size                              : 12.0 MiB (0%)
  280. Language                                 : Korean
  281. Default                                  : No
  282. Forced                                   : No

  283. Text #16
  284. ID                                       : 20
  285. Format                                   : PGS
  286. Muxing mode                              : zlib
  287. Codec ID                                 : S_HDMV/PGS
  288. Codec ID/Info                            : Picture based subtitle format used on BDs/HD-DVDs
  289. Duration                                 : 1 h 45 min
  290. Bit rate                                 : 19.6 kb/s
  291. Count of elements                        : 1697
  292. Stream size                              : 14.8 MiB (0%)
  293. Language                                 : Spanish
  294. Default                                  : No
  295. Forced                                   : No

  296. Text #17
  297. ID                                       : 21
  298. Format                                   : PGS
  299. Muxing mode                              : zlib
  300. Codec ID                                 : S_HDMV/PGS
  301. Codec ID/Info                            : Picture based subtitle format used on BDs/HD-DVDs
  302. Duration                                 : 1 h 45 min
  303. Bit rate                                 : 21.4 kb/s
  304. Count of elements                        : 1809
  305. Stream size                              : 16.1 MiB (0%)
  306. Language                                 : Swedish
  307. Default                                  : No
  308. Forced                                   : No

  309. Text #18
  310. ID                                       : 22
  311. Format                                   : PGS
  312. Muxing mode                              : zlib
  313. Codec ID                                 : S_HDMV/PGS
  314. Codec ID/Info                            : Picture based subtitle format used on BDs/HD-DVDs
  315. Duration                                 : 1 h 48 min
  316. Bit rate                                 : 18.3 kb/s
  317. Count of elements                        : 1687
  318. Stream size                              : 14.1 MiB (0%)
  319. Language                                 : Thai
  320. Default                                  : No
  321. Forced                                   : No

  322. Text #19
  323. ID                                       : 23
  324. Format                                   : PGS
  325. Muxing mode                              : zlib
  326. Codec ID                                 : S_HDMV/PGS
  327. Codec ID/Info                            : Picture based subtitle format used on BDs/HD-DVDs
  328. Duration                                 : 1 h 13 min
  329. Bit rate                                 : 166 b/s
  330. Count of elements                        : 8
  331. Stream size                              : 90.0 KiB (0%)
  332. Language                                 : Russian
  333. Default                                  : No
  334. Forced                                   : No

  335. Menu
  336. 00:00:00.000                             : en:00:00:00.000
  337. 00:07:54.808                             : en:00:07:54.808
  338. 00:15:00.733                             : en:00:15:00.733
  339. 00:20:12.086                             : en:00:20:12.086
  340. 00:25:41.457                             : en:00:25:41.457
  341. 00:34:02.165                             : en:00:34:02.165
  342. 00:41:55.930                             : en:00:41:55.930
  343. 00:49:12.199                             : en:00:49:12.199
  344. 00:55:11.391                             : en:00:55:11.391
  345. 01:01:33.106                             : en:01:01:33.106
  346. 01:05:57.787                             : en:01:05:57.787
  347. 01:12:49.407                             : en:01:12:49.407
  348. 01:17:59.341                             : en:01:17:59.341
  349. 01:28:31.264                             : en:01:28:31.264
  350. 01:36:52.223                             : en:01:36:52.223
  351. 01:45:19.230                             : en:01:45:19.230
复制代码

复制代码

克莉丝汀魅力/魅力姬丝汀 Christine.1983.2160p.UHD.BluRay.X265.10bit.HDR.TrueHD.7.1.Atmos-WhiteRhino 23.79GB-2.png 克莉丝汀魅力/魅力姬丝汀 Christine.1983.2160p.UHD.BluRay.X265.10bit.HDR.TrueHD.7.1.Atmos-WhiteRhino 23.79GB-3.png 克莉丝汀魅力/魅力姬丝汀 Christine.1983.2160p.UHD.BluRay.X265.10bit.HDR.TrueHD.7.1.Atmos-WhiteRhino 23.79GB-4.png






回复

使用道具 举报

蓝光币
1323
发表于 2018-9-13 21:54:19 | 显示全部楼层
楼主加油,我们都看好你哦。:):)
回复 支持 反对

使用道具 举报

蓝光币
3738
发表于 2018-10-26 00:20:24 | 显示全部楼层
谢谢楼主分享
回复 支持 反对

使用道具 举报

懒得打字嘛,点击右侧快捷回复 【右侧内容,后台自定义】
您需要登录后才可以回帖 登录 | 立即加入

本版积分规则

Archiver|小黑屋| 蓝光电影网 |网站地图

Copyright © 2021 Comsenz Inc. Powered by 蓝光电影网

蓝光电影网

本站内容由用户自主分享和转载自互联网,转载目的在于传递更多信息,并不代表本网赞同其观点和对其真实性负责。

如有侵权、违反国家法律政策行为,请联系我们,我们会第一时间及时清除和处理!

举报反馈邮箱:[email protected]

快速回复 返回顶部 返回列表