找回密码

蓝光电影网

查看: 630|回复: 2

[喜剧] 理想之家/两个爸爸 Ideal.Home.2018.1080p.BluRay.x264.DTS-HD.MA.5.1-FGT 7.63GB

[复制链接]
蓝光币
623
发表于 2018-9-12 09:59:52 | 显示全部楼层 |阅读模式


◎译  名 理想之家/两个爸爸(台)
◎片  名 Ideal Home
◎年  代 2018
◎产  地 美国
◎类  别 笑剧/同性
◎语  言 英语
◎上映日期 2018-02-15(同性恋狂欢电影节)/2018-06-29(美国部分上映)
◎豆瓣评分 6.3/10 from 550 users
◎豆瓣链接 https://movie.douban.com/subject/26726817/
◎片  长 91分钟
◎导  演 安德鲁·弗莱明 Andrew Fleming
◎主  演 保罗·路德 Paul Rudd
      凯特·沃什 Kate Walsh
      艾丽森·皮尔 Alison Pill
      杰克·麦克道曼 Jake McDorman
      史蒂夫·库根 Steve Coogan
      洛拉·玛汀内斯-康宁安 Lora Martinez-Cunningham
      萨拉·明妮奇 Sarah Minnich
      杰克·戈尔 Jack Gore
      杰西·卢肯 Jesse Luken
      弗兰西斯·李·麦克凯恩 Frances Lee McCain
      斯塔福德·道格拉斯 Stafford Douglas
      Cassandra Rochelle Fetters
      玛丽·瓦根曼 Marie Wagenman
      德鲁·德勒格 Drew Droege
      埃文·比当古 Evan Bittencourt
      理查德·比尔 Richard Beal
      J. Nathan Simmons
      Mike Miller

◎简  介

  保罗·路德联手史蒂夫·库根出演笑剧《理想之家》(An Ideal Home,暂译)。二人饰演一对共组家庭的同性朋友,一个亲戚的忽然到访打破了他们安静的生活。

  1. Video
  2. ID                                       : 1
  3. Format                                   : AVC
  4. Format/Info                              : Advanced Video Codec
  5. Format profile                           : [url=/cdn-cgi/l/email-protection][email protected][/url]
  6. Format settings                          : CABAC / 5 Ref Frames
  7. Format settings, CABAC                   : Yes
  8. Format settings, ReFrames                : 5 frames
  9. Codec ID                                 : V_MPEG4/ISO/AVC
  10. Duration                                 : 1 h 31 min
  11. Bit rate                                 : 8 772 kb/s
  12. Width                                    : 1 920 pixels
  13. Height                                   : 800 pixels
  14. Display aspect ratio                     : 2.40:1
  15. Frame rate mode                          : Constant
  16. Frame rate                               : 23.976 (24000/1001) FPS
  17. Color space                              : YUV
  18. Chroma subsampling                       : 4:2:0
  19. Bit depth                                : 8 bits
  20. Scan type                                : Progressive
  21. Bits/(Pixel*Frame)                       : 0.238
  22. Stream size                              : 5.59 GiB (73%)
  23. Title                                    : Ideal.Home.2018.1080p.BluRay.x264.DTS-HD.MA.5.1-FGT
  24. Writing library                          : x264 core 155 r2901 7d0ff22
  25. Encoding settings                        : cabac=1 / ref=5 / deblock=1:-3:-3 / analyse=0x3:0x133 / me=umh / subme=8 / psy=1 / psy_rd=1.00:0.00 / mixed_ref=1 / me_range=16 / chroma_me=1 / trellis=1 / 8x8dct=1 / cqm=0 / deadzone=21,11 / fast_pskip=0 / chroma_qp_offset=-2 / threads=24 / lookahead_threads=4 / sliced_threads=0 / nr=0 / decimate=1 / interlaced=0 / bluray_compat=0 / constrained_intra=0 / bframes=3 / b_pyramid=2 / b_adapt=1 / b_bias=0 / direct=3 / weightb=1 / open_gop=0 / weightp=2 / keyint=250 / keyint_min=23 / scenecut=40 / intra_refresh=0 / rc_lookahead=50 / rc=2pass / mbtree=1 / bitrate=8772 / ratetol=1.0 / qcomp=0.60 / qpmin=0 / qpmax=69 / qpstep=4 / cplxblur=20.0 / qblur=0.5 / vbv_maxrate=62500 / vbv_bufsize=78125 / nal_hrd=none / filler=0 / ip_ratio=1.40 / aq=1:1.00
  26. Language                                 : English
  27. Default                                  : Yes
  28. Forced                                   : No

  29. Audio
  30. ID                                       : 2
  31. Format                                   : DTS
  32. Format/Info                              : Digital Theater Systems
  33. Format profile                           : MA / Core
  34. Codec ID                                 : A_DTS
  35. Duration                                 : 1 h 31 min
  36. Bit rate mode                            : Variable / Constant
  37. Bit rate                                 : 3 169 kb/s / 1 509 kb/s
  38. Channel(s)                               : 6 channels
  39. Channel positions                        : Front: L C R, Side: L R, LFE
  40. Sampling rate                            : 48.0 kHz
  41. Frame rate                               : 93.750 FPS (512 SPF)
  42. Bit depth                                : 24 bits
  43. Compression mode                         : Lossless / Lossy
  44. Stream size                              : 2.02 GiB (26%)
  45. Title                                    : Ideal.Home.2018.1080p.BluRay.x264.DTS-HD.MA.5.1-FGT
  46. Language                                 : English
  47. Default                                  : Yes
  48. Forced                                   : No

  49. Text #1
  50. ID                                       : 3
  51. Format                                   : UTF-8
  52. Codec ID                                 : S_TEXT/UTF8
  53. Codec ID/Info                            : UTF-8 Plain Text
  54. Duration                                 : 1 h 23 min
  55. Bit rate                                 : 68 b/s
  56. Count of elements                        : 1156
  57. Stream size                              : 41.8 KiB (0%)
  58. Title                                    : English-SRT
  59. Language                                 : English
  60. Default                                  : Yes
  61. Forced                                   : No

  62. Text #2
  63. ID                                       : 4
  64. Format                                   : PGS
  65. Muxing mode                              : zlib
  66. Codec ID                                 : S_HDMV/PGS
  67. Codec ID/Info                            : Picture based subtitle format used on BDs/HD-DVDs
  68. Duration                                 : 1 h 29 min
  69. Bit rate                                 : 41.4 kb/s
  70. Count of elements                        : 2740
  71. Stream size                              : 26.5 MiB (0%)
  72. Title                                    : English-PGS
  73. Language                                 : English
  74. Default                                  : No
  75. Forced                                   : No

  76. Menu
  77. 00:00:00.000                             : en:00:00:00.000
  78. 00:04:31.354                             : en:00:04:31.354
  79. 00:08:21.584                             : en:00:08:21.584
  80. 00:14:31.829                             : en:00:14:31.829
  81. 00:19:21.577                             : en:00:19:21.577
  82. 00:23:11.557                             : en:00:23:11.557
  83. 00:28:10.314                             : en:00:28:10.314
  84. 00:33:56.201                             : en:00:33:56.201
  85. 00:37:57.609                             : en:00:37:57.609
  86. 00:43:32.944                             : en:00:43:32.944
  87. 00:50:22.394                             : en:00:50:22.394
  88. 00:57:07.591                             : en:00:57:07.591
  89. 01:03:27.178                             : en:01:03:27.178
  90. 01:09:52.438                             : en:01:09:52.438
  91. 01:14:19.372                             : en:01:14:19.372
  92. 01:21:59.665                             : en:01:21:59.665
复制代码

复制代码









回复

使用道具 举报

懒得打字嘛,点击右侧快捷回复 【右侧内容,后台自定义】
您需要登录后才可以回帖 登录 | 立即加入

本版积分规则

Archiver|小黑屋| 蓝光电影网 |网站地图

Copyright © 2021 Comsenz Inc. Powered by 蓝光电影网

蓝光电影网

本站内容由用户自主分享和转载自互联网,转载目的在于传递更多信息,并不代表本网赞同其观点和对其真实性负责。

如有侵权、违反国家法律政策行为,请联系我们,我们会第一时间及时清除和处理!

举报反馈邮箱:[email protected]

快速回复 返回顶部 返回列表