找回密码

蓝光电影网

查看: 862|回复: 4

[剧情] 负重前行/祸日光景 Cargo.2017.1080p.BluRay.x264.DTS-FGT 9.42GB

[复制链接]
蓝光币
623
发表于 2018-9-12 10:03:02 | 显示全部楼层 |阅读模式


◎译  名 负重前行/祸日风景(台)/父爱无僵
◎片  名 Cargo
◎年  代 2017
◎产  地 澳大利亚
◎类  别 剧情/可骇
◎语  言 英语
◎上映日期 2017-10-06(阿德莱德电影节)/2018-05-17(澳大利亚)
◎豆瓣评分 6.8/10 from 14,548 users
◎豆瓣链接 https://movie.douban.com/subject/26793157/
◎片  长 105分钟
◎导  演 本·豪林 Ben Howling / 约兰达·拉姆克 Yolanda Ramke
◎主  演 马丁·弗瑞曼 Martin Freeman
      安东尼·海斯 Anthony Hayes
      苏茜·波特 Susie Porter
      西蒙尼·兰德斯 Simone Landers
      凯伦·皮斯托里斯 Caren Pistorius
      克里斯·麦奎德 Kris McQuade
      布鲁斯·R·卡特 Bruce R. Carter
      娜塔莎·旺加尼恩 Natasha Wanganeen
      大卫·古皮利 David Gulpilil

◎简  介

  马丁·弗瑞曼加盟僵尸题材惊悚片《负重前行》。该片是2013年澳大利亚同名微电影的加长电影版。故事报告男配角安迪被丧尸妻子咬伤后,意想到自己也将在48小时内变成僵尸。身为人父的安迪为了庇护刚刚出世的婴孩遭此一劫,决然走上了一条不归路......

  1. Video
  2. ID                                       : 1
  3. Format                                   : AVC
  4. Format/Info                              : Advanced Video Codec
  5. Format profile                           : [url=/cdn-cgi/l/email-protection][email protected][/url]
  6. Format settings                          : CABAC / 4 Ref Frames
  7. Format settings, CABAC                   : Yes
  8. Format settings, ReFrames                : 4 frames
  9. Codec ID                                 : V_MPEG4/ISO/AVC
  10. Duration                                 : 1 h 43 min
  11. Bit rate                                 : 11.5 Mb/s
  12. Width                                    : 1 920 pixels
  13. Height                                   : 858 pixels
  14. Display aspect ratio                     : 2.25:1
  15. Frame rate mode                          : Constant
  16. Frame rate                               : 23.976 (24000/1001) FPS
  17. Color space                              : YUV
  18. Chroma subsampling                       : 4:2:0
  19. Bit depth                                : 8 bits
  20. Scan type                                : Progressive
  21. Bits/(Pixel*Frame)                       : 0.291
  22. Stream size                              : 8.32 GiB (88%)
  23. Title                                    : Cargo.2017.1080p.BluRay.x264.DTS-FGT
  24. Writing library                          : x264 core 148 r2795M aaa9aa8
  25. Encoding settings                        : cabac=1 / ref=4 / deblock=1:-2:-2 / analyse=0x3:0x113 / me=umh / subme=9 / psy=1 / psy_rd=1.00:0.15 / mixed_ref=1 / me_range=16 / chroma_me=1 / trellis=2 / 8x8dct=1 / cqm=0 / deadzone=21,11 / fast_pskip=1 / chroma_qp_offset=-3 / threads=24 / lookahead_threads=3 / sliced_threads=0 / nr=0 / decimate=1 / interlaced=0 / bluray_compat=0 / constrained_intra=0 / bframes=3 / b_pyramid=2 / b_adapt=1 / b_bias=0 / direct=3 / weightb=1 / open_gop=0 / weightp=2 / keyint=250 / keyint_min=25 / scenecut=40 / intra_refresh=0 / rc_lookahead=50 / rc=2pass / mbtree=1 / bitrate=11500 / ratetol=1.0 / qcomp=0.60 / qpmin=0 / qpmax=69 / qpstep=4 / cplxblur=20.0 / qblur=0.5 / vbv_maxrate=31250 / vbv_bufsize=31250 / nal_hrd=none / filler=0 / ip_ratio=1.40 / aq=1:1.00
  26. Language                                 : English
  27. Default                                  : Yes
  28. Forced                                   : No

  29. Audio
  30. ID                                       : 2
  31. Format                                   : DTS
  32. Format/Info                              : Digital Theater Systems
  33. Codec ID                                 : A_DTS
  34. Duration                                 : 1 h 43 min
  35. Bit rate mode                            : Constant
  36. Bit rate                                 : 1 509 kb/s
  37. Channel(s)                               : 6 channels
  38. Channel positions                        : Front: L C R, Side: L R, LFE
  39. Sampling rate                            : 48.0 kHz
  40. Frame rate                               : 93.750 FPS (512 SPF)
  41. Bit depth                                : 24 bits
  42. Compression mode                         : Lossy
  43. Stream size                              : 1.09 GiB (12%)
  44. Title                                    : Cargo.2017.1080p.BluRay.x264.DTS-FGT
  45. Language                                 : English
  46. Default                                  : No
  47. Forced                                   : No

  48. Text
  49. ID                                       : 3
  50. Format                                   : UTF-8
  51. Codec ID                                 : S_TEXT/UTF8
  52. Codec ID/Info                            : UTF-8 Plain Text
  53. Duration                                 : 1 h 29 min
  54. Bit rate                                 : 27 b/s
  55. Count of elements                        : 624
  56. Stream size                              : 18.2 KiB (0%)
  57. Language                                 : English
  58. Default                                  : Yes
  59. Forced                                   : No

  60. Menu
  61. 00:00:00.000                             : en:Chapter 01
  62. 00:00:42.333                             : en:Chapter 02
  63. 00:06:33.101                             : en:Chapter 03
  64. 00:16:29.571                             : en:Chapter 04
  65. 00:26:01.601                             : en:Chapter 05
  66. 00:31:49.616                             : en:Chapter 06
  67. 00:43:30.232                             : en:Chapter 07
  68. 00:54:46.825                             : en:Chapter 08
  69. 01:05:59.580                             : en:Chapter 09
  70. 01:12:16.123                             : en:Chapter 10
  71. 01:20:56.142                             : en:Chapter 11
  72. 01:26:07.078                             : en:Chapter 12
  73. 01:38:25.524                             : en:Chapter 13
复制代码

复制代码








回复

使用道具 举报

蓝光币
262
发表于 2018-9-12 13:49:28 | 显示全部楼层
感谢楼主分享~~~
回复 支持 反对

使用道具 举报

懒得打字嘛,点击右侧快捷回复 【右侧内容,后台自定义】
您需要登录后才可以回帖 登录 | 立即加入

本版积分规则

Archiver|小黑屋| 蓝光电影网 |网站地图

Copyright © 2021 Comsenz Inc. Powered by 蓝光电影网

蓝光电影网

本站内容由用户自主分享和转载自互联网,转载目的在于传递更多信息,并不代表本网赞同其观点和对其真实性负责。

如有侵权、违反国家法律政策行为,请联系我们,我们会第一时间及时清除和处理!

举报反馈邮箱:[email protected]

快速回复 返回顶部 返回列表