找回密码

蓝光电影网

查看: 819|回复: 1

[喜剧] 销魂天师/义胆游龙 Elvira.Mistress.Of.The.Dark.1988.1080p.BluRay.x264-CREEPSHOW 9.84GB

[复制链接]
蓝光币
623
发表于 2018-9-12 10:03:53 | 显示全部楼层 |阅读模式

销魂天师/义胆游龙 Elvira.Mistress.Of.The.Dark.1988.1080p.BluRay.x264-CREEPSHOW 9.84GB-1.jpg
◎译  名 销魂天师/义胆游龙/艾维拉惊魂
◎片  名 Elvira, Mistress of the Dark
◎年  代 1988
◎产  地 美国
◎类  别 笑剧/可骇
◎语  言 英语
◎上映日期 1988-09-30
◎豆瓣评分 7.6/10 from 394 users
◎豆瓣链接 https://movie.douban.com/subject/1296965/
◎片  长 96 分钟
◎导  演 James Signorelli
◎主  演 卡珊德拉·彼得逊 Cassandra Peterson
      Phil Rubenstein
      Larry Flash Jenkins

◎简  介

  Elvira, who is the host of a cheap horror movie program finds that she is the heir to an aunt's mansion in New England. The mansion is the home of some interesting magical items, but her first conflicts come from her attempts to bring some life to the small town, especially to the young people. The adults of the town are appalled by her dress, her tone, in fact everything about her, especially her sexual references

  1. Video
  2. ID                                       : 1
  3. Format                                   : AVC
  4. Format/Info                              : Advanced Video Codec
  5. Format profile                           : [url=/cdn-cgi/l/email-protection][email protected][/url]
  6. Format settings                          : CABAC / 4 Ref Frames
  7. Format settings, CABAC                   : Yes
  8. Format settings, RefFrames               : 4 frames
  9. Codec ID                                 : V_MPEG4/ISO/AVC
  10. Duration                                 : 1 h 36 min
  11. Bit rate                                 : 13.1 Mb/s
  12. Width                                    : 1 920 pixels
  13. Height                                   : 1 040 pixels
  14. Display aspect ratio                     : 1.85:1
  15. Frame rate mode                          : Constant
  16. Frame rate                               : 23.976 (24000/1001) FPS
  17. Color space                              : YUV
  18. Chroma subsampling                       : 4:2:0
  19. Bit depth                                : 8 bits
  20. Scan type                                : Progressive
  21. Bits/(Pixel*Frame)                       : 0.274
  22. Stream size                              : 8.82 GiB (90%)
  23. Writing library                          : x264 core 155 r2901 7d0ff22
  24. Encoding settings                        : cabac=1 / ref=4 / deblock=1:-2:-2 / analyse=0x3:0x133 / me=umh / subme=9 / psy=1 / psy_rd=1.00:0.00 / mixed_ref=1 / me_range=16 / chroma_me=1 / trellis=2 / 8x8dct=1 / cqm=0 / deadzone=21,11 / fast_pskip=0 / chroma_qp_offset=-2 / threads=12 / lookahead_threads=1 / sliced_threads=0 / nr=0 / decimate=1 / interlaced=0 / bluray_compat=0 / constrained_intra=0 / bframes=3 / b_pyramid=2 / b_adapt=2 / b_bias=0 / direct=3 / weightb=1 / open_gop=0 / weightp=2 / keyint=240 / keyint_min=23 / scenecut=40 / intra_refresh=0 / rc_lookahead=50 / rc=2pass / mbtree=1 / bitrate=13118 / ratetol=1.0 / qcomp=0.60 / qpmin=0 / qpmax=69 / qpstep=4 / cplxblur=20.0 / qblur=0.5 / vbv_maxrate=62500 / vbv_bufsize=78125 / nal_hrd=none / filler=0 / ip_ratio=1.40 / aq=1:0.70
  25. Default                                  : Yes
  26. Forced                                   : No

  27. Audio
  28. ID                                       : 2
  29. Format                                   : DTS
  30. Format/Info                              : Digital Theater Systems
  31. Mode                                     : 16
  32. Format settings, Endianness              : Big
  33. Codec ID                                 : A_DTS
  34. Duration                                 : 1 h 36 min
  35. Bit rate mode                            : Constant
  36. Bit rate                                 : 1 509 kb/s
  37. Channel(s)                               : 6 channels
  38. Channel positions                        : Front: L C R, Side: L R, LFE
  39. Sampling rate                            : 48.0 kHz
  40. Frame rate                               : 93.750 FPS (512 SPF)
  41. Bit depth                                : 24 bits
  42. Compression mode                         : Lossy
  43. Stream size                              : 1.01 GiB (10%)
  44. Language                                 : English
  45. Default                                  : Yes
  46. Forced                                   : No

  47. Text
  48. ID                                       : 3
  49. Format                                   : UTF-8
  50. Codec ID                                 : S_TEXT/UTF8
  51. Codec ID/Info                            : UTF-8 Plain Text
  52. Duration                                 : 1 h 33 min
  53. Bit rate                                 : 59 b/s
  54. Count of elements                        : 1073
  55. Stream size                              : 40.7 KiB (0%)
  56. Language                                 : English
  57. Default                                  : No
  58. Forced                                   : No

  59. Menu
  60. 00:00:00.000                             : en:00:00:00.000
  61. 00:01:37.055                             : en:00:01:37.055
  62. 00:07:20.231                             : en:00:07:20.231
  63. 00:12:08.186                             : en:00:12:08.186
  64. 00:20:51.917                             : en:00:20:51.917
  65. 00:34:35.198                             : en:00:34:35.198
  66. 00:55:32.371                             : en:00:55:32.371
  67. 01:05:32.929                             : en:01:05:32.929
  68. 01:21:18.332                             : en:01:21:18.332
  69. 01:30:20.290                             : en:01:30:20.290
复制代码

复制代码

销魂天师/义胆游龙 Elvira.Mistress.Of.The.Dark.1988.1080p.BluRay.x264-CREEPSHOW 9.84GB-2.jpg







回复

使用道具 举报

懒得打字嘛,点击右侧快捷回复 【右侧内容,后台自定义】
您需要登录后才可以回帖 登录 | 立即加入

本版积分规则

Archiver|小黑屋| 蓝光电影网 |网站地图

Copyright © 2021 Comsenz Inc. Powered by 蓝光电影网

蓝光电影网

本站内容由用户自主分享和转载自互联网,转载目的在于传递更多信息,并不代表本网赞同其观点和对其真实性负责。

如有侵权、违反国家法律政策行为,请联系我们,我们会第一时间及时清除和处理!

举报反馈邮箱:[email protected]

快速回复 返回顶部 返回列表