找回密码

蓝光电影网

查看: 806|回复: 2

[犯罪] 关键协议/关键协定 The.Proposition.2005.1080p.BluRay.x264-TiMELORDS 7.95GB

[复制链接]
蓝光币
623
发表于 2018-9-12 10:05:12 | 显示全部楼层 |阅读模式

关键协议/关键协议 The.Proposition.2005.1080p.BluRay.x264-TiMELORDS 7.95GB-1.jpg
◎译  名 关键协议/关键协议/情欲失格
◎片  名 The Proposition
◎年  代 2005
◎产  地 澳大利亚/英国
◎类  别 犯罪/剧情/西部
◎语  言 英语
◎上映日期 2005-10-06
◎豆瓣评分 7.0/10 from 884 users
◎豆瓣链接 https://movie.douban.com/subject/1485411/
◎片  长 104 分钟
◎导  演 约翰·希尔寇特 John Hillcoat
◎主  演 雷·温斯顿 Ray Winstone
      盖·皮尔斯 Guy Pearce
      艾米丽·沃森 Emily Watson
      丹尼·赫斯顿 Danny Huston
      理查德·威尔森 Richard Wilson
      大卫·文翰 David Wenham
      约翰·赫特 John Hurt

◎简  介

  故事发生在1880年的澳大利亚,差人和黑帮之间的关系已经降到了冰点,一切人都晓得,局势再照这样成长下去,一场恶斗在所难免。匪贼阿瑟(丹尼·休斯顿 Danny Huston 饰)的行为让事务向更糟的偏向成长而去,他在小镇居民霍普金斯家展开了一场血腥残暴的大屠杀后溜之大吉。
  看到兄弟已然损失了明智,查尔斯(盖·皮尔斯 Guy Pearce 饰)决议带着麦克(理查德·威尔森 Richard Wilson 饰)远走高飞。在关键时辰,斯坦利警长(雷·温斯顿 Ray Winstone 饰)礼服了查尔斯,绑架了麦克,他以麦克的人命为筹码,要求查尔斯杀掉丧芥蒂狂的阿瑟。双方都是手足情深的兄弟,查尔斯堕入了艰难的决定当中。

  1. Video
  2. ID                                       : 1
  3. Format                                   : AVC
  4. Format/Info                              : Advanced Video Codec
  5. Format profile                           : [url=/cdn-cgi/l/email-protection][email protected][/url]
  6. Format settings                          : CABAC / 5 Ref Frames
  7. Format settings, CABAC                   : Yes
  8. Format settings, ReFrames                : 5 frames
  9. Codec ID                                 : V_MPEG4/ISO/AVC
  10. Duration                                 : 1 h 43 min
  11. Bit rate                                 : 9 441 kb/s
  12. Width                                    : 1 920 pixels
  13. Height                                   : 800 pixels
  14. Display aspect ratio                     : 2.40:1
  15. Frame rate mode                          : Constant
  16. Frame rate                               : 24.000 FPS
  17. Color space                              : YUV
  18. Chroma subsampling                       : 4:2:0
  19. Bit depth                                : 8 bits
  20. Scan type                                : Progressive
  21. Bits/(Pixel*Frame)                       : 0.256
  22. Stream size                              : 6.69 GiB (84%)
  23. Title                                    : The Proposition
  24. Writing library                          : x264 core 65 r999 cc51047
  25. Encoding settings                        : cabac=1 / ref=5 / deblock=1:0:0 / analyse=0x3:0x133 / me=umh / subme=8 / psy_rd=1.0:0.0 / mixed_ref=1 / me_range=16 / chroma_me=1 / trellis=1 / 8x8dct=1 / cqm=0 / deadzone=21,11 / chroma_qp_offset=-2 / threads=6 / nr=0 / decimate=1 / mbaff=0 / bframes=3 / b_pyramid=1 / b_adapt=1 / b_bias=0 / direct=1 / wpredb=1 / keyint=250 / keyint_min=25 / scenecut=40(pre) / rc=2pass / bitrate=9441 / ratetol=1.0 / qcomp=0.60 / qpmin=10 / qpmax=51 / qpstep=4 / cplxblur=20.0 / qblur=0.5 / ip_ratio=1.40 / pb_ratio=1.30 / aq=1:1.00
  26. Default                                  : Yes
  27. Forced                                   : No

  28. Audio
  29. ID                                       : 2
  30. Format                                   : DTS
  31. Format/Info                              : Digital Theater Systems
  32. Codec ID                                 : A_DTS
  33. Duration                                 : 1 h 43 min
  34. Bit rate mode                            : Constant
  35. Bit rate                                 : 1 509 kb/s
  36. Channel(s)                               : 6 channels
  37. Channel positions                        : Front: L C R, Side: L R, LFE
  38. Sampling rate                            : 48.0 kHz
  39. Frame rate                               : 93.750 FPS (512 SPF)
  40. Bit depth                                : 24 bits
  41. Compression mode                         : Lossy
  42. Stream size                              : 1.09 GiB (14%)
  43. Title                                    : DTS
  44. Language                                 : English
  45. Default                                  : Yes
  46. Forced                                   : No
复制代码

复制代码

关键协议/关键协议 The.Proposition.2005.1080p.BluRay.x264-TiMELORDS 7.95GB-2.png 关键协议/关键协议 The.Proposition.2005.1080p.BluRay.x264-TiMELORDS 7.95GB-3.png 关键协议/关键协议 The.Proposition.2005.1080p.BluRay.x264-TiMELORDS 7.95GB-4.png





回复

使用道具 举报

蓝光币
262
发表于 2018-9-12 14:00:08 | 显示全部楼层
感谢楼主分享~~~
回复 支持 反对

使用道具 举报

懒得打字嘛,点击右侧快捷回复 【右侧内容,后台自定义】
您需要登录后才可以回帖 登录 | 立即加入

本版积分规则

Archiver|小黑屋| 蓝光电影网 |网站地图

Copyright © 2021 Comsenz Inc. Powered by 蓝光电影网

蓝光电影网

本站内容由用户自主分享和转载自互联网,转载目的在于传递更多信息,并不代表本网赞同其观点和对其真实性负责。

如有侵权、违反国家法律政策行为,请联系我们,我们会第一时间及时清除和处理!

举报反馈邮箱:[email protected]

快速回复 返回顶部 返回列表