找回密码

蓝光电影网

查看: 854|回复: 1

[冒险] 星战迷友 The.Fanboys.2009.1080p.BluRay.x264.DTS-FGT 7.03GB

[复制链接]
蓝光币
623
发表于 2018-9-12 10:06:36 | 显示全部楼层 |阅读模式


◎译  名 星战迷友
◎片  名 Fanboys
◎年  代 2009
◎产  地 美国
◎类  别 冒险/笑剧/剧情
◎语  言 英语
◎上映日期 2009-02-06
◎豆瓣评分 7.2/10 from 1,319 users
◎豆瓣链接 https://movie.douban.com/subject/1940309/
◎片  长 USA: 90 分钟
◎导  演 凯尔·纽曼 Kyle Newman
◎主  演 萨姆·亨廷顿 Sam Huntington
      克里斯·马奎特 Chris Marquette
      丹·福勒 Dan Fogler
      杰伊·巴鲁切尔 Jay Baruchel
      克里斯汀·贝尔 Kristen Bell
      塞斯·罗根 Seth Rogen

◎简  介

  1998年,《星球大战》系列行将归来,星战迷们为这消息所深深震动。巴特勒(萨姆?亨廷顿 Sam Huntington 饰)曾有三个同为星战迷的好友,现在他为父亲的汽车销售行全日忙碌,与哈切(丹?福勒 Dan Fogler 饰)、利诺斯(克里斯?马奎特 Chris Marquette 饰)、温多斯(杰伊?巴鲁切尔 Jay Baruchel 饰)不再有昔日的慎好友谊。某日,利诺斯被查出罹患癌症,只剩下几个月的生命,四个好友终究为此再次团圆,一同前往乔治?卢卡斯的天行者牧场,意图窃取《星球大战》的拷贝先睹为快。一路上,他们履历了同《星际迷航》粉丝的混战、牢狱之苦和飞车党俱乐部中的迷幻药体验,好友佐伊的到来令他们的组合加倍强大,前方的旅途仍然艰难,但任何工作都不能阻止这班星战迷友勇往直前……

  1. Video
  2. ID                                       : 1
  3. Format                                   : AVC
  4. Format/Info                              : Advanced Video Codec
  5. Format profile                           : [url=/cdn-cgi/l/email-protection][email protected][/url]
  6. Format settings                          : CABAC / 4 Ref Frames
  7. Format settings, CABAC                   : Yes
  8. Format settings, ReFrames                : 4 frames
  9. Codec ID                                 : V_MPEG4/ISO/AVC
  10. Duration                                 : 1 h 29 min
  11. Bit rate                                 : 9 718 kb/s
  12. Width                                    : 1 920 pixels
  13. Height                                   : 1 080 pixels
  14. Display aspect ratio                     : 16:9
  15. Frame rate mode                          : Constant
  16. Frame rate                               : 23.976 FPS
  17. Color space                              : YUV
  18. Chroma subsampling                       : 4:2:0
  19. Bit depth                                : 8 bits
  20. Scan type                                : Progressive
  21. Bits/(Pixel*Frame)                       : 0.195
  22. Stream size                              : 5.94 GiB (85%)
  23. Writing library                          : x264 core 80 r1376M 3feaec2
  24. Encoding settings                        : cabac=1 / ref=4 / deblock=1:-4:-4 / analyse=0x3:0x113 / me=umh / subme=10 / psy=1 / psy_rd=1.0:0.0 / mixed_ref=1 / me_range=64 / chroma_me=1 / trellis=2 / 8x8dct=1 / cqm=0 / deadzone=21,11 / fast_pskip=1 / chroma_qp_offset=-2 / threads=12 / sliced_threads=0 / nr=0 / decimate=1 / mbaff=0 / constrained_intra=0 / bframes=5 / b_pyramid=2 / b_adapt=2 / b_bias=0 / direct=2 / wpredb=1 / wpredp=2 / keyint=250 / keyint_min=25 / scenecut=40 / rc_lookahead=50 / rc=2pass / mbtree=1 / bitrate=9718 / ratetol=1.0 / qcomp=0.80 / qpmin=10 / qpmax=51 / qpstep=4 / cplxblur=20.0 / qblur=0.5 / vbv_maxrate=38000 / vbv_bufsize=30000 / ip_ratio=1.40 / aq=1:0.00
  25. Language                                 : English
  26. Default                                  : Yes
  27. Forced                                   : No

  28. Audio
  29. ID                                       : 2
  30. Format                                   : DTS
  31. Format/Info                              : Digital Theater Systems
  32. Codec ID                                 : A_DTS
  33. Duration                                 : 1 h 29 min
  34. Bit rate mode                            : Constant
  35. Bit rate                                 : 1 509 kb/s
  36. Channel(s)                               : 6 channels
  37. Channel positions                        : Front: L C R, Side: L R, LFE
  38. Sampling rate                            : 48.0 kHz
  39. Frame rate                               : 93.750 FPS (512 SPF)
  40. Bit depth                                : 24 bits
  41. Compression mode                         : Lossy
  42. Stream size                              : 968 MiB (13%)
  43. Language                                 : English
  44. Default                                  : Yes
  45. Forced                                   : No

  46. Text
  47. ID                                       : 3
  48. Format                                   : UTF-8
  49. Codec ID                                 : S_TEXT/UTF8
  50. Codec ID/Info                            : UTF-8 Plain Text
  51. Language                                 : English
  52. Default                                  : No
  53. Forced                                   : No
复制代码

复制代码






回复

使用道具 举报

懒得打字嘛,点击右侧快捷回复 【右侧内容,后台自定义】
您需要登录后才可以回帖 登录 | 立即加入

本版积分规则

Archiver|小黑屋| 蓝光电影网 |网站地图

Copyright © 2021 Comsenz Inc. Powered by 蓝光电影网

蓝光电影网

本站内容由用户自主分享和转载自互联网,转载目的在于传递更多信息,并不代表本网赞同其观点和对其真实性负责。

如有侵权、违反国家法律政策行为,请联系我们,我们会第一时间及时清除和处理!

举报反馈邮箱:[email protected]

快速回复 返回顶部 返回列表