找回密码

蓝光电影网

查看: 4663|回复: 2

[剧情] 极度恐慌/恐怖地带 Outbreak.1995.1080p.BluRay.x264-TiMELORDS 7.95GB

[复制链接]
蓝光币
623
发表于 2018-9-12 10:07:17 | 显示全部楼层 |阅读模式

极端发急/可骇地带 Outbreak.1995.1080p.BluRay.x264-TiMELORDS 7.95GB-1.jpg
◎译  名 极端发急/可骇地带/危机总带动/舒展/极端惊慌
◎片  名 Outbreak
◎年  代 1995
◎产  地 美国
◎类  别 剧情/科幻/惊悚/灾难
◎语  言 英语/韩语/法语
◎上映日期 1995-03-10(美国)
◎豆瓣评分 7.6/10 from 12,766 users
◎豆瓣链接 https://movie.douban.com/subject/1301419/
◎片  长 127分钟
◎导  演 沃尔夫冈·彼德森 Wolfgang Petersen
◎主  演 达斯汀·霍夫曼 Dustin Hoffman
      蕾妮·罗素 Rene Russo
      摩根·弗里曼 Morgan Freeman
      凯文·史派西 Kevin Spacey
      小库珀·古丁 Cuba Gooding Jr.
      唐纳德·萨瑟兰 Donald Sutherland
      帕特里克·德姆西 Patrick Dempsey
      本尼托·马丁内斯 Benito Martinez
      马利克·鲍恩斯 Malick Bowens
      苏姗·李·霍夫曼 Susan Lee Hoffman
      布鲁斯·雅霍夫 Bruce Jarchow
      利兰·海沃德三世 Leland Hayward III
      丹尼尔·乔多斯 Daniel Chodos
      代尔·戴 Dale Dye
      卡拉·基奥 Kara Keough
      吉娜·门扎 Gina Menza
      扎克·默凯 Zakes Mokae
      莫瑞·史特林 Maury Sterling
      迈克尔·伊曼纽尔 Michael Emanuel
      凯利·奥弗贝 Kellie Overbey

◎简  介

  1967年,在非洲的扎伊尔莫他巴河谷,美国的雇佣军军营中被一种突如其来的疾病肆虐,灭亡人数不竭爬升。军医抽取传染血样分开后,全部军营被炸弹摧毁,四周树林中的白脸猴发出阵阵惊啼声……
  直到90年月,一个美国年轻人在非洲扎伊尔捕捉到一只小白脸猴,并带返国出售。由于分歧买首要求,年轻人将山公放生,以后一种新型疾病在旧金山的香柏溪镇上舒展。美国沾抱病研讨所上校军医山姆(达斯汀?霍夫曼 Dustin Hoffman饰)接到消息,与妻子(蕾妮?罗素 Rene Russo 饰)及同事立即展开研讨和救治工作。由于疾病沾染性极高,政府告急出动军队封锁镇子,想要逃离者格杀勿论。此时,有一批保密的染毒血清被送来,但山姆等一群人研讨发现,这批血清能救治1967年的疾病,却对现在变异后的病毒毫无感化。未几,山姆的妻子不幸被传染,生命弥留中时,政府也作出决议,预备投放炸弹摧毁全部镇子,以此消灭病毒。时候迫在眉睫,山姆查出了病毒的来历,他必须抢在投弹前找到原始病毒照顾者。

◎获奖情况

  第16届中国电影金鸡奖  (1996)
  最好本国影片译制奖(提名)

  1. Video
  2. ID                                       : 1
  3. Format                                   : AVC
  4. Format/Info                              : Advanced Video Codec
  5. Format profile                           : [url=/cdn-cgi/l/email-protection][email protected][/url]
  6. Format settings                          : CABAC / 4 Ref Frames
  7. Format settings, CABAC                   : Yes
  8. Format settings, ReFrames                : 4 frames
  9. Codec ID                                 : V_MPEG4/ISO/AVC
  10. Duration                                 : 2 h 8 min
  11. Bit rate                                 : 8 230 kb/s
  12. Width                                    : 1 920 pixels
  13. Height                                   : 1 080 pixels
  14. Display aspect ratio                     : 16:9
  15. Frame rate mode                          : Constant
  16. Frame rate                               : 23.976 FPS
  17. Color space                              : YUV
  18. Chroma subsampling                       : 4:2:0
  19. Bit depth                                : 8 bits
  20. Scan type                                : Progressive
  21. Bits/(Pixel*Frame)                       : 0.166
  22. Stream size                              : 7.21 GiB (91%)
  23. Writing library                          : x264 core 65 r998M 6768543
  24. Encoding settings                        : cabac=1 / ref=4 / deblock=1:0:0 / analyse=0x3:0x113 / me=umh / subme=7 / psy_rd=1.0:0.0 / mixed_ref=1 / me_range=16 / chroma_me=1 / trellis=1 / 8x8dct=1 / cqm=0 / deadzone=8,5 / chroma_qp_offset=-2 / threads=6 / nr=0 / decimate=1 / mbaff=0 / bframes=3 / b_pyramid=1 / b_adapt=1 / b_bias=0 / direct=1 / wpredb=1 / keyint=250 / keyint_min=25 / scenecut=40(pre) / rc=2pass / bitrate=8230 / ratetol=1.0 / qcomp=0.60 / qpmin=10 / qpmax=51 / qpstep=4 / cplxblur=20.0 / qblur=0.5 / ip_ratio=1.40 / pb_ratio=1.30 / aq=1:1.00
  25. Default                                  : Yes
  26. Forced                                   : No

  27. Audio
  28. ID                                       : 2
  29. Format                                   : AC-3
  30. Format/Info                              : Audio Coding 3
  31. Codec ID                                 : A_AC3
  32. Duration                                 : 2 h 8 min
  33. Bit rate mode                            : Constant
  34. Bit rate                                 : 640 kb/s
  35. Channel(s)                               : 6 channels
  36. Channel positions                        : Front: L C R, Side: L R, LFE
  37. Sampling rate                            : 48.0 kHz
  38. Frame rate                               : 31.250 FPS (1536 SPF)
  39. Bit depth                                : 16 bits
  40. Compression mode                         : Lossy
  41. Stream size                              : 587 MiB (7%)
  42. Language                                 : English
  43. Service kind                             : Complete Main
  44. Default                                  : Yes
  45. Forced                                   : No

  46. Text
  47. ID                                       : 3
  48. Format                                   : UTF-8
  49. Codec ID                                 : S_TEXT/UTF8
  50. Codec ID/Info                            : UTF-8 Plain Text
  51. Language                                 : English
  52. Default                                  : Yes
  53. Forced                                   : No
复制代码

复制代码

极端发急/可骇地带 Outbreak.1995.1080p.BluRay.x264-TiMELORDS 7.95GB-2.png 极端发急/可骇地带 Outbreak.1995.1080p.BluRay.x264-TiMELORDS 7.95GB-3.png 极端发急/可骇地带 Outbreak.1995.1080p.BluRay.x264-TiMELORDS 7.95GB-4.png






回复

使用道具 举报

蓝光币
38
发表于 2020-1-30 09:21:24 | 显示全部楼层
到处找不到,还是这个网站好,城市封闭了,看看这个经典重温儿时时光,谢谢楼主
回复 支持 反对

使用道具 举报

蓝光币
294
发表于 2020-7-18 17:23:14 | 显示全部楼层
当年的大片啊,谢谢分享
回复 支持 反对

使用道具 举报

懒得打字嘛,点击右侧快捷回复 【右侧内容,后台自定义】
您需要登录后才可以回帖 登录 | 立即加入

本版积分规则

Archiver|小黑屋| 蓝光电影网 |网站地图

Copyright © 2021 Comsenz Inc. Powered by 蓝光电影网

蓝光电影网

本站内容由用户自主分享和转载自互联网,转载目的在于传递更多信息,并不代表本网赞同其观点和对其真实性负责。

如有侵权、违反国家法律政策行为,请联系我们,我们会第一时间及时清除和处理!

举报反馈邮箱:[email protected]

快速回复 返回顶部 返回列表