找回密码

蓝光电影网

查看: 798|回复: 2

[悬疑] 在我父亲的洞穴里 In.My.Fathers.Den.2004.LiMiTED.1080p.BluRay.x264-TiMELORDS 8.75GB

[复制链接]
蓝光币
623
发表于 2018-9-12 10:08:11 | 显示全部楼层 |阅读模式

在我父亲的洞窟里 In.My.Fathers.Den.2004.LiMiTED.1080p.BluRay.x264-TiMELORDS 8.75GB-1.jpg
◎译  名 在我父亲的洞窟里
◎片  名 In My Father's Den
◎年  代 2004
◎产  地 新西兰/英国
◎类  别 悬疑/剧情/惊悚
◎语  言 英语
◎上映日期 2004-10-07(新西兰)
◎豆瓣评分 7.7/10 from 1,714 users
◎豆瓣链接 https://movie.douban.com/subject/1309127/
◎片  长 127分钟
◎导  演 布拉德·迈克吉恩 Brad McGann
◎主  演 马修·麦克费登 Matthew Macfadyen
      艾米丽·巴克雷 Emily Barclay
      米兰达·奥图 Miranda Otto
      科林·莫伊 Colin Moy
      Jimmy Keen
      Jodie Rimmer

◎简  介

  这是鲍尔(马修·麦克费登 Matthew Macfadyen 饰)这十几年来第一次踏上故乡的地盘,他来这里不为了此外,只为了加入父亲的葬礼。作为鲍尔的兄长,安德鲁(科林·莫伊 Colin Moy 饰)对于兄弟的来访却并不兴奋,时候使人们变得陌生,悬殊的本性又为他们制造了冲突。在安德鲁的激烈要求下,鲍尔来到了父亲已经呆过的小屋,清算父亲留下的遗产,没想到,在小屋里,鲍尔碰见了一位名叫西莉亚(艾米丽·巴克雷 Emily Barclay 饰)的少女。
  受朋友所托,鲍尔担任了写作课的代课教员,在班上,他再一次的看到了西莉亚的身影。令鲍尔受惊的是,西莉亚居然是他和前女友的恋爱结晶而他对此一无所知。在血缘的影响下,鲍尔对西莉亚分外的照顾和关心,竭尽尽力的支持着她追求自己的胡想,这样的状态一向延续到了西莉亚忽然失落的那一天,同时,一个不为人知的奥秘就此揭开。

◎获奖情况

  第8届上海国际电影节  (2005)
  金爵奖 最好影片(提名) 布拉德·迈克吉恩
  金爵奖 最好摄影 斯图尔特·瑞伯

  1. Video
  2. ID                                       : 1
  3. Format                                   : AVC
  4. Format/Info                              : Advanced Video Codec
  5. Format profile                           : [url=/cdn-cgi/l/email-protection][email protected][/url]
  6. Format settings                          : CABAC / 5 Ref Frames
  7. Format settings, CABAC                   : Yes
  8. Format settings, ReFrames                : 5 frames
  9. Codec ID                                 : V_MPEG4/ISO/AVC
  10. Duration                                 : 2 h 7 min
  11. Bit rate                                 : 8 330 kb/s
  12. Width                                    : 1 920 pixels
  13. Height                                   : 816 pixels
  14. Display aspect ratio                     : 2.35:1
  15. Frame rate mode                          : Constant
  16. Frame rate                               : 23.976 FPS
  17. Color space                              : YUV
  18. Chroma subsampling                       : 4:2:0
  19. Bit depth                                : 8 bits
  20. Scan type                                : Progressive
  21. Bits/(Pixel*Frame)                       : 0.222
  22. Stream size                              : 7.23 GiB (83%)
  23. Title                                    : In My Father\'s Den
  24. Writing library                          : x264 core 65 r1080 56e9183
  25. Encoding settings                        : cabac=1 / ref=5 / deblock=1:0:0 / analyse=0x3:0x133 / me=umh / subme=7 / psy_rd=1.0:0.0 / mixed_ref=1 / me_range=16 / chroma_me=1 / trellis=1 / 8x8dct=1 / cqm=0 / deadzone=21,11 / chroma_qp_offset=-2 / threads=6 / nr=0 / decimate=1 / mbaff=0 / bframes=3 / b_pyramid=1 / b_adapt=1 / b_bias=0 / direct=1 / wpredb=1 / keyint=250 / keyint_min=25 / scenecut=40(pre) / rc=2pass / bitrate=8330 / ratetol=1.0 / qcomp=0.60 / qpmin=10 / qpmax=51 / qpstep=4 / cplxblur=20.0 / qblur=0.5 / ip_ratio=1.40 / pb_ratio=1.30 / aq=1:1.00
  26. Default                                  : Yes
  27. Forced                                   : No

  28. Audio
  29. ID                                       : 2
  30. Format                                   : DTS
  31. Format/Info                              : Digital Theater Systems
  32. Codec ID                                 : A_DTS
  33. Duration                                 : 2 h 7 min
  34. Bit rate mode                            : Constant
  35. Bit rate                                 : 1 510 kb/s
  36. Channel(s)                               : 6 channels
  37. Channel positions                        : Front: L C R, Side: L R, LFE
  38. Sampling rate                            : 48.0 kHz
  39. Frame rate                               : 93.750 FPS (512 SPF)
  40. Bit depth                                : 16 bits
  41. Compression mode                         : Lossy
  42. Stream size                              : 1.34 GiB (15%)
  43. Title                                    : DTS
  44. Language                                 : English
  45. Default                                  : Yes
  46. Forced                                   : No

  47. Menu
  48. 00:00:00.000                             : en:01
  49. 00:02:47.583                             : en:02
  50. 00:09:32.125                             : en:03
  51. 00:17:59.000                             : en:04
  52. 00:26:45.125                             : en:05
  53. 00:34:43.792                             : en:06
  54. 00:43:11.375                             : en:07
  55. 00:51:18.708                             : en:08
  56. 00:58:28.375                             : en:09
  57. 01:03:29.625                             : en:10
  58. 01:13:17.167                             : en:11
  59. 01:20:46.167                             : en:12
  60. 01:30:46.417                             : en:13
  61. 01:39:55.625                             : en:14
  62. 01:54:06.750                             : en:15
  63. 02:02:54.708                             : en:16
  64. 02:07:12.792                             : en:17
复制代码

复制代码

在我父亲的洞窟里 In.My.Fathers.Den.2004.LiMiTED.1080p.BluRay.x264-TiMELORDS 8.75GB-2.png 在我父亲的洞窟里 In.My.Fathers.Den.2004.LiMiTED.1080p.BluRay.x264-TiMELORDS 8.75GB-3.png 在我父亲的洞窟里 In.My.Fathers.Den.2004.LiMiTED.1080p.BluRay.x264-TiMELORDS 8.75GB-4.png





回复

使用道具 举报

懒得打字嘛,点击右侧快捷回复 【右侧内容,后台自定义】
您需要登录后才可以回帖 登录 | 立即加入

本版积分规则

Archiver|小黑屋| 蓝光电影网 |网站地图

Copyright © 2021 Comsenz Inc. Powered by 蓝光电影网

蓝光电影网

本站内容由用户自主分享和转载自互联网,转载目的在于传递更多信息,并不代表本网赞同其观点和对其真实性负责。

如有侵权、违反国家法律政策行为,请联系我们,我们会第一时间及时清除和处理!

举报反馈邮箱:[email protected]

快速回复 返回顶部 返回列表