找回密码

蓝光电影网

查看: 750|回复: 1

[喜剧] 疯狂躲避球/闪避球的奇迹 Dodgeball.2004.1080p.BluRay.x264-TiMELORDS 6.55GB

[复制链接]
蓝光币
623
发表于 2018-9-12 10:08:32 | 显示全部楼层 |阅读模式

疯狂躲避球/闪避球的奇迹 Dodgeball.2004.1080p.BluRay.x264-TiMELORDS 6.55GB-1.jpg
◎译  名 疯狂躲避球/闪避球的奇迹/铁男躲避球/屎波快闪队
◎片  名 Dodgeball: A True Underdog Story
◎年  代 2004
◎产  地 美国/德国
◎类  别 笑剧/活动
◎语  言 英语
◎上映日期 2004-06-18
◎豆瓣评分 6.1/10 from 2,638 users
◎豆瓣链接 https://movie.douban.com/subject/1308775/
◎片  长 92 分钟
◎导  演 罗森·马歇尔·瑟伯 Rawson Marshall Thurber
◎主  演 文斯·沃恩 Vince Vaughn
      克里斯蒂娜·泰勒 Christine Taylor
      本·斯蒂勒 Ben Stiller
      雷普·汤恩 Rip Torn
      贾斯汀·朗 Justin Long
      斯蒂芬·鲁特 Stephen Root
      乔·摩尔 Joel Moore

◎简  介

  “全球健身中心”的开创人怀特?古德曼(本?斯蒂勒 Ben Stiller 饰)为人猖狂,以吞并别的健身馆为乐事。健身中心四周有一家暗澹经营的公共健身馆,其负责人彼得(文斯?沃恩 Vince Vaughn 饰)素性冷淡,对一班荒诞的老顾客持久免费办事。为吞并公共健身馆,古德曼购入后者的债权,并拜托银行找来律师凯特(克里斯蒂娜?泰勒 Christine Taylor 饰)要求彼得在30天内筹集五万美圆还债,否则健身馆将转入古德曼名下。一筹莫展的彼得与众位老顾客、雇员想到加入拉斯维加斯举行的“躲避球大赛”,期望获得冠军奖金处理迫在眉睫。同时不胜古德曼骚扰的凯特也加入了彼得一边,古德曼亦构造球队参赛,意欲将彼得等人截杀……

◎获奖情况

  第14届MTV电影奖  (2005)
  MTV电影奖 最好笑剧表演(提名) 本·斯蒂勒
  MTV电影奖 最好银幕组合(提名) 克里斯蒂娜·泰勒 / 贾斯汀·朗 / 乔·大卫·摩尔  / 克里斯·威廉斯 / 艾伦·图代克 / 斯蒂芬·鲁特 / 文斯·沃恩
  MTV电影奖 最好反派 本·斯蒂勒

  1. Video
  2. ID                                       : 1
  3. Format                                   : AVC
  4. Format/Info                              : Advanced Video Codec
  5. Format profile                           : [url=/cdn-cgi/l/email-protection][email protected][/url]
  6. Format settings                          : CABAC / 5 Ref Frames
  7. Format settings, CABAC                   : Yes
  8. Format settings, ReFrames                : 5 frames
  9. Codec ID                                 : V_MPEG4/ISO/AVC
  10. Duration                                 : 1 h 32 min
  11. Bit rate                                 : 8 609 kb/s
  12. Width                                    : 1 920 pixels
  13. Height                                   : 824 pixels
  14. Display aspect ratio                     : 2.35:1
  15. Frame rate mode                          : Constant
  16. Frame rate                               : 23.976 FPS
  17. Color space                              : YUV
  18. Chroma subsampling                       : 4:2:0
  19. Bit depth                                : 8 bits
  20. Scan type                                : Progressive
  21. Bits/(Pixel*Frame)                       : 0.227
  22. Stream size                              : 5.44 GiB (83%)
  23. Writing library                          : x264 core 65 r1077M e46f648
  24. Encoding settings                        : cabac=1 / ref=5 / deblock=1:0:0 / analyse=0x3:0x133 / me=umh / subme=7 / psy_rd=1.0:0.0 / mixed_ref=1 / me_range=16 / chroma_me=1 / trellis=1 / 8x8dct=1 / cqm=0 / deadzone=21,11 / chroma_qp_offset=-2 / threads=6 / nr=0 / decimate=0 / mbaff=0 / bframes=3 / b_pyramid=1 / b_adapt=1 / b_bias=0 / direct=1 / wpredb=1 / keyint=250 / keyint_min=25 / scenecut=40(pre) / rc=2pass / bitrate=8609 / ratetol=1.0 / qcomp=0.60 / qpmin=10 / qpmax=51 / qpstep=4 / cplxblur=20.0 / qblur=0.5 / ip_ratio=1.40 / pb_ratio=1.30 / aq=1:1.20
  25. Default                                  : Yes
  26. Forced                                   : No

  27. Audio
  28. ID                                       : 2
  29. Format                                   : DTS
  30. Format/Info                              : Digital Theater Systems
  31. Codec ID                                 : A_DTS
  32. Duration                                 : 1 h 32 min
  33. Bit rate mode                            : Constant
  34. Bit rate                                 : 1 509 kb/s
  35. Channel(s)                               : 6 channels
  36. Channel positions                        : Front: L C R, Side: L R, LFE
  37. Sampling rate                            : 48.0 kHz
  38. Frame rate                               : 93.750 FPS (512 SPF)
  39. Bit depth                                : 24 bits
  40. Compression mode                         : Lossy
  41. Stream size                              : 999 MiB (15%)
  42. Language                                 : English
  43. Default                                  : Yes
  44. Forced                                   : No

  45. Text #1
  46. ID                                       : 3
  47. Format                                   : UTF-8
  48. Codec ID                                 : S_TEXT/UTF8
  49. Codec ID/Info                            : UTF-8 Plain Text
  50. Language                                 : English
  51. Default                                  : Yes
  52. Forced                                   : No

  53. Text #2
  54. ID                                       : 4
  55. Format                                   : UTF-8
  56. Codec ID                                 : S_TEXT/UTF8
  57. Codec ID/Info                            : UTF-8 Plain Text
  58. Language                                 : Dutch
  59. Default                                  : No
  60. Forced                                   : No

  61. Text #3
  62. ID                                       : 5
  63. Format                                   : UTF-8
  64. Codec ID                                 : S_TEXT/UTF8
  65. Codec ID/Info                            : UTF-8 Plain Text
  66. Language                                 : Finnish
  67. Default                                  : No
  68. Forced                                   : No

  69. Text #4
  70. ID                                       : 6
  71. Format                                   : UTF-8
  72. Codec ID                                 : S_TEXT/UTF8
  73. Codec ID/Info                            : UTF-8 Plain Text
  74. Language                                 : Danish
  75. Default                                  : No
  76. Forced                                   : No

  77. Text #5
  78. ID                                       : 7
  79. Format                                   : UTF-8
  80. Codec ID                                 : S_TEXT/UTF8
  81. Codec ID/Info                            : UTF-8 Plain Text
  82. Language                                 : Norwegian
  83. Default                                  : No
  84. Forced                                   : No

  85. Text #6
  86. ID                                       : 8
  87. Format                                   : UTF-8
  88. Codec ID                                 : S_TEXT/UTF8
  89. Codec ID/Info                            : UTF-8 Plain Text
  90. Language                                 : Swedish
  91. Default                                  : No
  92. Forced                                   : No

  93. Menu
  94. 00:00:00.000                             : en:01
  95. 00:02:24.978                             : en:02
  96. 00:05:13.688                             : en:03
  97. 00:08:00.814                             : en:04
  98. 00:13:25.346                             : en:05
  99. 00:16:33.242                             : en:06
  100. 00:18:22.059                             : en:07
  101. 00:22:01.904                             : en:08
  102. 00:26:27.044                             : en:09
  103. 00:30:33.915                             : en:10
  104. 00:34:26.731                             : en:11
  105. 00:37:04.639                             : en:12
  106. 00:39:34.455                             : en:13
  107. 00:45:39.612                             : en:14
  108. 00:54:08.328                             : en:15
  109. 00:59:11.715                             : en:16
  110. 01:00:28.583                             : en:17
  111. 01:05:34.597                             : en:18
  112. 01:09:48.059                             : en:19
  113. 01:20:00.337                             : en:20
  114. 01:27:31.580                             : en:01:27:31.580
  115. 01:31:23.853                             : en:01:31:23.853
  116. 01:32:34.299                             : en:01:32:34.299
复制代码

复制代码

疯狂躲避球/闪避球的奇迹 Dodgeball.2004.1080p.BluRay.x264-TiMELORDS 6.55GB-2.png 疯狂躲避球/闪避球的奇迹 Dodgeball.2004.1080p.BluRay.x264-TiMELORDS 6.55GB-3.png 疯狂躲避球/闪避球的奇迹 Dodgeball.2004.1080p.BluRay.x264-TiMELORDS 6.55GB-4.png






回复

使用道具 举报

懒得打字嘛,点击右侧快捷回复 【右侧内容,后台自定义】
您需要登录后才可以回帖 登录 | 立即加入

本版积分规则

Archiver|小黑屋| 蓝光电影网 |网站地图

Copyright © 2021 Comsenz Inc. Powered by 蓝光电影网

蓝光电影网

本站内容由用户自主分享和转载自互联网,转载目的在于传递更多信息,并不代表本网赞同其观点和对其真实性负责。

如有侵权、违反国家法律政策行为,请联系我们,我们会第一时间及时清除和处理!

举报反馈邮箱:[email protected]

快速回复 返回顶部 返回列表