找回密码

蓝光电影网

查看: 701|回复: 1

[喜剧] 笨人晚宴/愚人晚宴 Dinner.For.Schmucks.2010.1080p.BluRay.x264-CBGB 7.94GB

[复制链接]
蓝光币
623
发表于 2018-9-12 10:09:20 | 显示全部楼层 |阅读模式

笨人晚宴/愚人晚宴 Dinner.For.Schmucks.2010.1080p.BluRay.x264-CBGB 7.94GB-1.jpg
◎译  名 笨人晚宴/愚人晚宴
◎片  名 Dinner for Schmucks
◎年  代 2010
◎产  地 美国
◎类  别 笑剧
◎语  言 英语
◎上映日期 2010-07-30
◎豆瓣评分 6.8/10 from 9,099 users
◎豆瓣链接 https://movie.douban.com/subject/2257738/
◎片  长 114 分钟
◎导  演 杰伊·罗奇 Jay Roach
◎主  演 史蒂夫·卡瑞尔 Steve Carell
      保罗·路德 Paul Rudd
      扎克·加利凡纳基斯 Zach Galifianakis
      杰梅奈·克莱门特 Jemaine Clement
      斯特芬妮·斯佐斯塔克 Stephanie Szostak
      露茜·彭奇 Lucy Punch
      布鲁斯·格林伍德 Bruce Greenwood
      大卫·威廉姆斯 David Walliams
      朗·里维斯顿 Ron Livingston
      拉里·威尔莫 Larry Wilmore
      克里斯汀·沙尔 Kristen Schaal
      P·J·伯恩 P.J. Byrne
      安德丽·萨维奇 Andrea Savage
      尼克·克罗尔 Nick Kroll
      兰道尔·朴 Randall Park
      露茜·达文波特 Lucy Davenport

◎简  介

  本片按照1998年的法国电影《Le Diner de Cons》改编而成。
  蒂姆·瓦格纳(保罗·路德 Paul Rudd 饰)为了奉迎下属,从而顺遂升职,加入了一个被称为"痴人之宴"的活动,目标就是成功的寻觅到一个完善的同伴共赴晚饭,届时看谁的同伴是痴人中的痴人。蒂姆找来了看上去很傻的国税局雇员巴里(史蒂夫·卡瑞尔 Steve Carell 饰)担任他的同伴,去竞选阿谁"痴人之最"的称号,以便逗乐老板。可是,那里想到,鬼使神差的工作发生了,巴里虽然确切痴人,可是却意外的让蒂姆的老板一样出丑,在这场晚宴制造了不小的风浪,蒂姆该若何结束?到底谁才是实在的痴人极品?

  1. Video
  2. ID                                       : 1
  3. Format                                   : AVC
  4. Format/Info                              : Advanced Video Codec
  5. Format profile                           : [url=/cdn-cgi/l/email-protection][email protected][/url]
  6. Format settings                          : CABAC / 4 Ref Frames
  7. Format settings, CABAC                   : Yes
  8. Format settings, ReFrames                : 4 frames
  9. Codec ID                                 : V_MPEG4/ISO/AVC
  10. Duration                                 : 1 h 54 min
  11. Bit rate                                 : 8 462 kb/s
  12. Width                                    : 1 920 pixels
  13. Height                                   : 1 080 pixels
  14. Display aspect ratio                     : 16:9
  15. Frame rate mode                          : Constant
  16. Frame rate                               : 23.976 (24000/1001) FPS
  17. Color space                              : YUV
  18. Chroma subsampling                       : 4:2:0
  19. Bit depth                                : 8 bits
  20. Scan type                                : Progressive
  21. Bits/(Pixel*Frame)                       : 0.170
  22. Stream size                              : 6.58 GiB (83%)
  23. Writing library                          : x264 core 112 r1834 a51816a
  24. Encoding settings                        : cabac=1 / ref=4 / deblock=1:0:0 / analyse=0x3:0x113 / me=umh / subme=8 / psy=1 / psy_rd=1.00:0.20 / mixed_ref=1 / me_range=16 / chroma_me=1 / trellis=1 / 8x8dct=1 / cqm=0 / deadzone=21,11 / fast_pskip=1 / chroma_qp_offset=-3 / threads=12 / sliced_threads=0 / nr=0 / decimate=1 / interlaced=0 / constrained_intra=0 / bframes=3 / b_pyramid=2 / b_adapt=1 / b_bias=0 / direct=3 / weightb=1 / open_gop=0 / weightp=2 / keyint=250 / keyint_min=23 / scenecut=40 / intra_refresh=0 / rc_lookahead=40 / rc=2pass / mbtree=1 / bitrate=8462 / ratetol=1.0 / qcomp=0.60 / qpmin=0 / qpmax=51 / qpstep=4 / cplxblur=20.0 / qblur=0.5 / ip_ratio=1.40 / aq=1:1.00
  25. Language                                 : English
  26. Default                                  : Yes
  27. Forced                                   : No

  28. Audio
  29. ID                                       : 2
  30. Format                                   : DTS
  31. Format/Info                              : Digital Theater Systems
  32. Codec ID                                 : A_DTS
  33. Duration                                 : 1 h 54 min
  34. Bit rate mode                            : Constant
  35. Bit rate                                 : 1 509 kb/s
  36. Channel(s)                               : 6 channels
  37. Channel positions                        : Front: L C R, Side: L R, LFE
  38. Sampling rate                            : 48.0 kHz
  39. Frame rate                               : 93.750 FPS (512 SPF)
  40. Bit depth                                : 24 bits
  41. Compression mode                         : Lossy
  42. Stream size                              : 1.20 GiB (15%)
  43. Language                                 : English
  44. Default                                  : Yes
  45. Forced                                   : No

  46. Menu
  47. 00:00:00.000                             : en:00:00:00.000
  48. 00:05:00.842                             : en:00:05:00.842
  49. 00:10:28.086                             : en:00:10:28.086
  50. 00:14:39.170                             : en:00:14:39.170
  51. 00:20:46.787                             : en:00:20:46.787
  52. 00:23:34.705                             : en:00:23:34.705
  53. 00:26:37.513                             : en:00:26:37.513
  54. 00:32:59.019                             : en:00:32:59.019
  55. 00:36:04.454                             : en:00:36:04.454
  56. 00:42:03.312                             : en:00:42:03.312
  57. 00:50:27.608                             : en:00:50:27.608
  58. 00:55:19.149                             : en:00:55:19.149
  59. 01:00:16.363                             : en:01:00:16.363
  60. 01:11:34.957                             : en:01:11:34.957
  61. 01:20:09.346                             : en:01:20:09.346
  62. 01:32:34.174                             : en:01:32:34.174
  63. 01:43:02.218                             : en:01:43:02.218
  64. 01:47:47.670                             : en:01:47:47.670
复制代码

复制代码

笨人晚宴/愚人晚宴 Dinner.For.Schmucks.2010.1080p.BluRay.x264-CBGB 7.94GB-2.png 笨人晚宴/愚人晚宴 Dinner.For.Schmucks.2010.1080p.BluRay.x264-CBGB 7.94GB-3.png 笨人晚宴/愚人晚宴 Dinner.For.Schmucks.2010.1080p.BluRay.x264-CBGB 7.94GB-4.png






回复

使用道具 举报

懒得打字嘛,点击右侧快捷回复 【右侧内容,后台自定义】
您需要登录后才可以回帖 登录 | 立即加入

本版积分规则

Archiver|小黑屋| 蓝光电影网 |网站地图

Copyright © 2021 Comsenz Inc. Powered by 蓝光电影网

蓝光电影网

本站内容由用户自主分享和转载自互联网,转载目的在于传递更多信息,并不代表本网赞同其观点和对其真实性负责。

如有侵权、违反国家法律政策行为,请联系我们,我们会第一时间及时清除和处理!

举报反馈邮箱:[email protected]

快速回复 返回顶部 返回列表