找回密码

蓝光电影网

查看: 575|回复: 2

[剧情] 美国紫罗兰 American.Violet.2008.LIMITED.1080p.Bluray.x264-CBGB 7.95GB

[复制链接]
蓝光币
623
发表于 2018-9-12 10:10:43 | 显示全部楼层 |阅读模式

美国紫罗兰 American.Violet.2008.LIMITED.1080p.Bluray.x264-CBGB 7.95GB-1.jpg
◎译  名 美国紫罗兰
◎片  名 American Violet
◎年  代 2008
◎产  地 美国
◎类  别 剧情
◎语  言 英语
◎上映日期 2008-08-29
◎豆瓣评分 7.1/10 from 255 users
◎豆瓣链接 https://movie.douban.com/subject/3290657/
◎片  长 USA: 103 分钟
◎导  演 Tim Disney
◎主  演 Nicole Beharie
      威尔·帕顿 Will Patton
      阿尔法·伍达德 Alfre Woodard
      迈克尔·奥吉弗 Michael O'Keefe
      蒂姆·布雷克·尼尔森 Tim Blake Nelson

◎简  介

  影片按照实在事务改编,在2000年,德克萨斯州的一个小镇,24岁的非裔母亲迪·罗伯茨因一个未经证实的证词而被以贩毒的罪名而逮捕。此时,摆在迪眼前的有一份协议,只要她认可了莫须有的罪名,她能尽早获得自在,迪拒绝了。她决议要抗争到底,而这也永久改变了她和德克萨斯州的司法系统。
  身为没钱没布景的贫民,面临威望的榨取,一般城市挑选冷静地承受这一切。可是当一个年轻的黑人女性奋起抵挡,拒绝为自己从没犯下的错误买单时,激发的却是倾覆性的成果。
  2000年11月,美国的总统大选正停止的如火如荼,不外官场的热络氛围,明显并没有涉及到一座位于德州的小城镇的平常作息……一切都是围绕着一个名叫迪·罗伯茨(妮可·贝海尔饰)的24岁的年轻黑人女性展开的,她是一位单身妈妈,经过在当地的小饭馆里做办事生的支出和政府补给的救济金赡养4个年数尚小的女儿。
  在一个天刚蒙蒙亮的早晨,由于需要替班,迪已经起头了一天的工作。她所不晓得的是,很是有势力的地方检查官加尔文·拜基特(迈克尔·奥吉弗饰)核准了一次大范围的毒品搜寻行动……随后,差人用手铐抓走了仍然在工作中的迪,把她关进了拥堵龌龊的女子牢狱傍边。而她之所以遭到这样突如其来的看待,全数都要源于一个疑点重重的差人线报酬了消除对自己的控告所供给的不实的内部消息,迪很快就被当做一个毒品估客,并遭到了起诉。
  即使之前迪没有任何与毒品有关的不良记录,差人去她的居处停止突击检查也是白手而归,但摆在迪眼前的却是一个很是糟糕的残暴挑选:乖乖认罪,然后以一个罪犯的身份回抵家中;或继续待在牢狱里为了洗清自己的控告而奋力抵挡——但这也有能够激发极为可怕的结果,包括加倍冗长的刑期,以及褫夺她对4个女儿的监护权。
  虽然迪的妈妈阿尔玛(阿尔法·沃德饰)为了她的自在和孩子的归宿,力劝她在认罪书上签字,可是经过了仔细地考虑以后,迪却挑选与检查官加尔文以及他所代表的倔强的法令系统周旋到底,还自己的明净,证实贫民并不就即是罪犯。在一位来自于美国百姓自在协会的律师大卫·科恩(蒂姆·布雷克·尼尔森饰)和退休的戒毒主座萨姆·康罗伊(威尔·帕顿饰)的帮助下,迪情愿拿自己的一切做赌注,勇敢地匹敌德州的势力机构和法令缝隙,即使这能够会永久地改变她的生活和未来,也在所不惜。
  幕后花絮
  【缝隙百出的不健全的法令系统】
  《美国紫罗兰》的故事灵感来历于发生在2000年美国总统大选时代的真人真事,在那时引发了不小的波动,甚至间接促进了德州的法令系统的变动,影片的导演演蒂姆·迪斯尼(Tim Disney)描写事务发生的原由,他说:“11月份的时辰,就在当地和国家的选举投票竣事以后,大量的武装差人冲进了一个位于德州郊区的小城镇的低支出室第区,展开了突击搜寻……当天有30人被捕,其中之一就是一个很是贫困的24岁单身妈妈,她独力抚养着4个小孩,之前从没有过任何不良的犯罪记录——我们就用影片中的名字来称号她,随后,迪·罗伯茨由于贩毒而遭到了控告。”
  就像美国其他由于各类百般的罪名被拘系的人一样,迪收到了一份“辩诉买卖”——经过认罪来追求在法庭上获得较轻的惩罚,和“率直从宽、顺从从严”有点类似,而她看起来除了签字别无挑选,蒂姆·迪斯尼说:“迪要末认可她从没有犯过的罪行,借此早日分开由于过于拥堵而散发着恶臭的德州牢狱,要末与威望机构匹敌到底,冒着能够再多坐10年牢以及落空对她的孩子们的监护权的危险。”
  《美国紫罗兰》以这样一个在那时传遍了全美国、使民气碎的实在事务为创作根本,集合展现的一小我的非凡勇气,这里有一位单身妈妈,被迫从她的孩子和她所顺从的原则当挑选其一,可是她却尽力地想要保全一切的一切,蒂姆·迪斯尼说:“美国具有的是全天下最多的正在牢狱中服刑的生齿,比俄国还要多……到今朝为止,美国有跨越2百万的人正在座牢,而这些罪犯里有90%以上的人都签定了‘辩诉买卖’,意味着他们中的大大都人并没有真正面临过法官和陪审团,就被当做渣滓一样间接扔到了牢狱里。那些以盈利为目标的牢狱都是在靠那些所谓果断冲击犯罪行为的检查官支持着,美满是在经过‘辩诉买卖’停止报酬地科罪。在美国生齿总数中,有1千3百万人都是这类范例的监犯,他们中自然有很多人想过要为自己停止辩解,可是由于需要冒着与政府和法令系统匹敌的危险,所以败诉的比率也是出奇地高的。”
  在这样的社会情况里,经过权衡比力的人,不管情愿还是被迫,城市挑选在“辩诉买卖”上签字,蒂姆·迪斯尼万般无法地暗示:“由于需要支出的价格实在是太大了,被认定有罪的监犯会落空很多生活在美国必备的福利,比如说失业救济金、医疗保险、医疗补助和住房补助……在以州为单元的很多地方,这样的人甚至还会落空选民的身份——举个最简单的例子,2000年的那场大选中,就稀有百万美国人是没法为总统候选人投票的。假如他们挑选上诉,那末期待他们的极能够就是最为贫苦的地步,还会连累到他们的孩子,正是由于这个缘由,很少会有人真正站出来为自己辩解、保护属于他们的权益。”
  可是,无数个究竟证实,常常是在这类最黑暗的情况之下,才有能够出现一个可以激励一切人的声音……惧怕、孤独,还要替孩子们担忧,迪几近被检查官的权利压制得转动不得,可是她仍然勇敢地拒绝认可那些她从没有犯下过的罪行,同时还决议用自己的未来做赌注,为了争取最大限度的存在代价而奋起抵挡,蒂姆·迪斯尼说:“就在6年前,我和我的电影同伴比尔·汉尼(Bill Haney)同时得悉了有关迪的故事,带给我们的是极大的灵感和启迪,一向延续到了明天。”
  【弱势群体匹敌强权】
  比尔·汉尼为《美国紫罗兰》所承当的不但仅是编剧工作,他同时还负担起了制片人的重任。而他之所以会被这样一个来历于真人真事的故事所吸引,还在于它集合表现出来的那种以小我的微薄气力去匹敌政府的法令系统的震动,汉尼说:“为了这个剧本,我花去了差不多6年的时候……我还记得自己第一次听到它是在开车回家的路上,从广播傍边,阿谁时辰我住在波士顿。电台以一种倒叙的形式具体先容了一个来自于德州的年轻女子以及地方上的司法系统对她的生活所带来的可怕影响。我听着听着,忽然发现自己泪如泉涌,由于我生平最悔恨的就是这类以强权压制无辜平民的卑劣行动,似乎所谓的法律机构最愿意做的工作,就是想尽法子熬煎我们社区中最为弱势的一个群体。听完了广播以后,我起头思考假如这个女人不能不忍受来自于地方检查官的严酷的考验,势必会对她的家庭和她的孩子们带来没法逆转的危险。因而我把车停到了路边,顿时拨通了美国百姓自在协会的电话,询问是哪位律师为她停止的辩解。”
  经过这样的方式,围绕着这个名叫迪的女子发生的故事在比尔·汉尼的脑子里渐渐地有了表面,他也认定了这是一个可以被搬上大银幕的值得歌颂的传奇,汉尼说:“我很快就意想到,自己愿意花上大把的时候去观察整件事的后果结果,我和蒂姆·迪斯尼分歧以为,它是一个值得我们为之支出精神和热情的故事。我们经过美国百姓自在协会争取与这位女子获得联系,中心的进程确切花掉我们很多的时候,由于阿谁时辰她仍然处在对德州的诉讼傍边,从法令的态度斟酌,她最好等案件有了眉目以后再和我们停止详谈……当我们得知当事人居然是一位24岁的年轻黑人女性时,真的是大吃一惊,更别提她还是4个非终年幼的孩子的母亲,由于家庭的压力而承受着庞大的经济负担,我们都愿意等到她可以张口报告一切的那一刻。”
  随后,又过了一年半的时候,比尔·汉尼才如愿见到这位名叫迪的女子,他说:“我花了大量的时候与她扳谈,差不多又过了半年左右吧,我亲身去了一趟德州,并住到了她地点的社区里,想要体味一下那边的空气和感受。可以真正碰触到那样的情况,坐在迪的家里与她措辞,带给我的是很是激烈的冲击,我感觉打从我第一次去德州的时辰,脑子里的故事就起头具有属于它自己的戏剧潜能和重要性了——荣幸的是,蒂姆·迪斯尼明显和我有着类似的感受,以为这一趟德州之行真的是很是地有代价的。我们由于不异的缘由此爱上了以电影为载体的讲故事方式,而且很快就领会到我们应当让更多的人晓得这个有关一位年轻的女子独力匹敌全部州的法令系统的案件。”
  蒂姆·迪斯尼和比尔·汉尼在此之前都堆集了大量建造记载片的经历,可是他们却挑选以电影的形式来说述发生在迪身上的一切,汉尼说:“我和迪斯尼确切建造过几部记载片,但也有拍电影的经历,对于我们来说,当碰到感爱好的素材话题时,自然会有一番权衡的标准,看看采用什么样的方式最能突出里面的戏剧张力和吸引力,尽能够地让故事具有一种很有启蒙式教育的启发感化。在研讨了这个发生在德州的实在案例以后,我和迪斯尼分歧决议挑选电影长片的结构展开设想的同党,由于全部事务不但仅让人感应心碎和难过,还隐藏着一些特别的质地和感情,我们想记录下这一切然后经过画面展现出来。我们做了很多相关的测试,想要集合寻觅并重建一下迪曾有过的实在履历,然后以此为焦点成长出一个自始自终的完整故事。我晓得这样一个进程对于一位24岁的单身妈妈来说,在心理上确切是过于苛求且有点残暴的——迪在与我们说话的时辰,被迫去回忆那些不愉快的往昔,可是为了让影片具有更多丰富的特点,我们只能事无巨细地领会一切,包括她身旁曾出现过一些什么样的人,在这件事上起到了什么样重要的感化……固然,我们能够没法子很是有用且周全地捉居处有细节,由于即使是记忆,也有能够出现一些主观的误差,我们只想以此为根本,应用电影说话重新建造一个故工作况,供给一个平台,把迪曩昔的履历讲给更多的人听。”
  以电影长片的形式缔造《美国紫罗兰》的剧本,占据着上风的比尔·汉尼同时还需要面临的是更多的应战,他暗示:“我确切为这部影片支出了我能设想获得的一切,包括大量的时候,只由于我感觉自己有义务、有义务尽能够具体且正确的地去复原它。在预备的进程中,我们与《美国紫罗兰》所根据的现实生活中能够会触及进来的人停止了扳谈和录像,究竟证实,它们都在我创作剧本的时辰赐与了我庞大的帮助,同时也为蒂姆·迪斯尼在执导的时辰放置好了加倍清楚的头绪。而且我们还要求一切介入进来的演员必须看完这些为时差不多6个小时的录像,仔细地琢磨他们的脚色的人物原型。我希望他们可以是以而缔造出一个又一个布满了戏剧色彩且很饱满的脚色,真正将自己渗透到那些已经实在发生过的事务傍边,以出色的本性人物来组分解一个引人注视标电影故事。”

  1. Video
  2. ID                                       : 1
  3. Format                                   : AVC
  4. Format/Info                              : Advanced Video Codec
  5. Format profile                           : [url=/cdn-cgi/l/email-protection][email protected][/url]
  6. Format settings                          : CABAC / 5 Ref Frames
  7. Format settings, CABAC                   : Yes
  8. Format settings, ReFrames                : 5 frames
  9. Codec ID                                 : V_MPEG4/ISO/AVC
  10. Duration                                 : 1 h 42 min
  11. Bit rate                                 : 9 547 kb/s
  12. Width                                    : 1 920 pixels
  13. Height                                   : 800 pixels
  14. Display aspect ratio                     : 2.40:1
  15. Frame rate mode                          : Constant
  16. Frame rate                               : 23.976 (24000/1001) FPS
  17. Color space                              : YUV
  18. Chroma subsampling                       : 4:2:0
  19. Bit depth                                : 8 bits
  20. Scan type                                : Progressive
  21. Bits/(Pixel*Frame)                       : 0.259
  22. Stream size                              : 6.70 GiB (84%)
  23. Writing library                          : x264 core 76 r1271 496d79d
  24. Encoding settings                        : cabac=1 / ref=5 / deblock=1:0:0 / analyse=0x3:0x133 / me=umh / subme=7 / psy=1 / psy_rd=1.0:0.0 / mixed_ref=1 / me_range=16 / chroma_me=1 / trellis=1 / 8x8dct=1 / cqm=0 / deadzone=21,11 / chroma_qp_offset=-2 / threads=6 / nr=0 / decimate=1 / mbaff=0 / bframes=3 / b_pyramid=0 / b_adapt=1 / b_bias=0 / direct=1 / wpredb=1 / keyint=240 / keyint_min=24 / scenecut=40 / rc_lookahead=40 / rc=2pass / mbtree=1 / bitrate=9547 / ratetol=1.0 / qcomp=0.60 / qpmin=10 / qpmax=51 / qpstep=4 / cplxblur=20.0 / qblur=0.5 / ip_ratio=1.40 / aq=1:1.00
  25. Language                                 : English
  26. Default                                  : Yes
  27. Forced                                   : No

  28. Audio
  29. ID                                       : 2
  30. Format                                   : DTS
  31. Format/Info                              : Digital Theater Systems
  32. Codec ID                                 : A_DTS
  33. Duration                                 : 1 h 42 min
  34. Bit rate mode                            : Constant
  35. Bit rate                                 : 1 509 kb/s
  36. Channel(s)                               : 6 channels
  37. Channel positions                        : Front: L C R, Side: L R, LFE
  38. Sampling rate                            : 48.0 kHz
  39. Frame rate                               : 93.750 FPS (512 SPF)
  40. Bit depth                                : 24 bits
  41. Compression mode                         : Lossy
  42. Stream size                              : 1.08 GiB (14%)
  43. Language                                 : English
  44. Default                                  : Yes
  45. Forced                                   : No

  46. Text
  47. ID                                       : 3
  48. Format                                   : UTF-8
  49. Codec ID                                 : S_TEXT/UTF8
  50. Codec ID/Info                            : UTF-8 Plain Text
  51. Language                                 : English
  52. Default                                  : No
  53. Forced                                   : No

  54. Menu
  55. 00:00:00.000                             : en:00:00:00.000
  56. 00:04:30.812                             : en:00:04:30.812
  57. 00:11:37.572                             : en:00:11:37.572
  58. 00:23:44.256                             : en:00:23:44.256
  59. 00:34:13.510                             : en:00:34:13.510
  60. 00:40:17.332                             : en:00:40:17.332
  61. 00:51:16.407                             : en:00:51:16.407
  62. 01:01:52.834                             : en:01:01:52.834
  63. 01:10:15.962                             : en:01:10:15.962
  64. 01:21:16.663                             : en:01:21:16.663
  65. 01:33:29.437                             : en:01:33:29.437
  66. 01:38:10.301                             : en:01:38:10.301
复制代码

复制代码

美国紫罗兰 American.Violet.2008.LIMITED.1080p.Bluray.x264-CBGB 7.95GB-2.png 美国紫罗兰 American.Violet.2008.LIMITED.1080p.Bluray.x264-CBGB 7.95GB-3.png 美国紫罗兰 American.Violet.2008.LIMITED.1080p.Bluray.x264-CBGB 7.95GB-4.png






回复

使用道具 举报

懒得打字嘛,点击右侧快捷回复 【右侧内容,后台自定义】
您需要登录后才可以回帖 登录 | 立即加入

本版积分规则

Archiver|小黑屋| 蓝光电影网 |网站地图

Copyright © 2021 Comsenz Inc. Powered by 蓝光电影网

蓝光电影网

本站内容由用户自主分享和转载自互联网,转载目的在于传递更多信息,并不代表本网赞同其观点和对其真实性负责。

如有侵权、违反国家法律政策行为,请联系我们,我们会第一时间及时清除和处理!

举报反馈邮箱:[email protected]

快速回复 返回顶部 返回列表