找回密码

蓝光电影网

查看: 663|回复: 1

[剧情] 十年 10.Years.2011.LIMITED.1080p.Bluray.x264-CBGB 6.55GB

[复制链接]
蓝光币
623
发表于 2018-9-12 10:11:07 | 显示全部楼层 |阅读模式

十年 10.Years.2011.LIMITED.1080p.Bluray.x264-CBGB 6.55GB-1.jpg
◎译  名 十年
◎片  名 10 Years
◎年  代 2011
◎产  地 美国
◎类  别 剧情
◎语  言 英语
◎上映日期 2011-09(多伦多电影节)/2012-09-14(美国)
◎豆瓣评分 6.9/10 from 1,195 users
◎豆瓣链接 https://movie.douban.com/subject/5940763/
◎片  长 100分钟
◎导  演 Jamie Linden
◎主  演 查宁·塔图姆 Channing Tatum
      凯特·玛拉 Kate Mara
      贾斯汀·朗 Justin Long
      罗莎里奥·道森 Rosario Dawson
      朗·里维斯顿 Ron Livingston
      琳恩·柯林斯 Lynn Collins
      克里斯·帕拉特 Chris Pratt
      山姆·佩吉 Sam Page
      斯科特·波特 Scott Porter
      安东尼·麦凯 Anthony Mackie
      奥斯卡·伊撒克 Oscar Isaac
      布莱恩·格拉格提 Brian Geraghty

◎简  介

  高中好友自结业各散工具后再次带着各自出色又让人难以置信的故事聚会,George, Jonathan和Luke是最好的哥们,他们答应一定要连结联络,虽然他们相隔千里。3年后的炎天,George决议为好友们举行一个归宁派对,别的二人也赞成了。他们叫上了其他好友,如Luke, Jill, Nate, Brooke和Matthew等。

  1. Video
  2. ID                                       : 1
  3. Format                                   : AVC
  4. Format/Info                              : Advanced Video Codec
  5. Format profile                           : [url=/cdn-cgi/l/email-protection][email protected][/url]
  6. Format settings                          : CABAC / 4 Ref Frames
  7. Format settings, CABAC                   : Yes
  8. Format settings, ReFrames                : 4 frames
  9. Muxing mode                              : Header stripping
  10. Codec ID                                 : V_MPEG4/ISO/AVC
  11. Duration                                 : 1 h 40 min
  12. Bit rate                                 : 8 681 kb/s
  13. Width                                    : 1 920 pixels
  14. Height                                   : 1 080 pixels
  15. Display aspect ratio                     : 16:9
  16. Frame rate mode                          : Constant
  17. Frame rate                               : 23.976 (24000/1001) FPS
  18. Color space                              : YUV
  19. Chroma subsampling                       : 4:2:0
  20. Bit depth                                : 8 bits
  21. Scan type                                : Progressive
  22. Bits/(Pixel*Frame)                       : 0.175
  23. Stream size                              : 5.97 GiB (91%)
  24. Writing library                          : x264 core 129 r2230 1cffe9f
  25. Encoding settings                        : cabac=1 / ref=4 / deblock=1:0:0 / analyse=0x3:0x113 / me=umh / subme=8 / psy=1 / psy_rd=1.00:0.00 / mixed_ref=1 / me_range=16 / chroma_me=1 / trellis=1 / 8x8dct=1 / cqm=0 / deadzone=21,11 / fast_pskip=1 / chroma_qp_offset=-2 / threads=12 / lookahead_threads=2 / sliced_threads=0 / nr=0 / decimate=1 / interlaced=0 / bluray_compat=0 / constrained_intra=0 / bframes=3 / b_pyramid=2 / b_adapt=1 / b_bias=0 / direct=3 / weightb=1 / open_gop=0 / weightp=2 / keyint=250 / keyint_min=23 / scenecut=40 / intra_refresh=0 / rc_lookahead=40 / rc=2pass / mbtree=1 / bitrate=8681 / ratetol=1.0 / qcomp=0.60 / qpmin=0 / qpmax=69 / qpstep=4 / cplxblur=20.0 / qblur=0.5 / ip_ratio=1.40 / aq=1:1.00
  26. Language                                 : English
  27. Default                                  : Yes
  28. Forced                                   : No

  29. Audio
  30. ID                                       : 2
  31. Format                                   : AC-3
  32. Format/Info                              : Audio Coding 3
  33. Muxing mode                              : Header stripping
  34. Codec ID                                 : A_AC3
  35. Duration                                 : 1 h 40 min
  36. Bit rate mode                            : Constant
  37. Bit rate                                 : 640 kb/s
  38. Channel(s)                               : 6 channels
  39. Channel positions                        : Front: L C R, Side: L R, LFE
  40. Sampling rate                            : 48.0 kHz
  41. Frame rate                               : 31.250 FPS (1536 SPF)
  42. Bit depth                                : 16 bits
  43. Compression mode                         : Lossy
  44. Stream size                              : 461 MiB (7%)
  45. Language                                 : English
  46. Service kind                             : Complete Main
  47. Default                                  : Yes
  48. Forced                                   : No

  49. Menu
  50. 00:00:00.000                             : en:00:00:00.000
  51. 00:06:18.712                             : en:00:06:18.712
  52. 00:13:34.522                             : en:00:13:34.522
  53. 00:20:40.030                             : en:00:20:40.030
  54. 00:33:22.792                             : en:00:33:22.792
  55. 00:44:20.032                             : en:00:44:20.032
  56. 00:53:14.983                             : en:00:53:14.983
  57. 00:59:50.045                             : en:00:59:50.045
  58. 01:07:19.160                             : en:01:07:19.160
  59. 01:16:28.584                             : en:01:16:28.584
  60. 01:25:19.740                             : en:01:25:19.740
  61. 01:36:04.133                             : en:01:36:04.133
复制代码

复制代码

十年 10.Years.2011.LIMITED.1080p.Bluray.x264-CBGB 6.55GB-2.png 十年 10.Years.2011.LIMITED.1080p.Bluray.x264-CBGB 6.55GB-3.png 十年 10.Years.2011.LIMITED.1080p.Bluray.x264-CBGB 6.55GB-4.png






回复

使用道具 举报

懒得打字嘛,点击右侧快捷回复 【右侧内容,后台自定义】
您需要登录后才可以回帖 登录 | 立即加入

本版积分规则

Archiver|小黑屋| 蓝光电影网 |网站地图

Copyright © 2021 Comsenz Inc. Powered by 蓝光电影网

蓝光电影网

本站内容由用户自主分享和转载自互联网,转载目的在于传递更多信息,并不代表本网赞同其观点和对其真实性负责。

如有侵权、违反国家法律政策行为,请联系我们,我们会第一时间及时清除和处理!

举报反馈邮箱:[email protected]

快速回复 返回顶部 返回列表