找回密码

蓝光电影网

查看: 1138|回复: 2

[冒险] 布鲁姆兄弟/骗行无阻 The.Brothers.Bloom.2008.LIMITED.1080p.Bluray.x264-CBGB 10.91GB

[复制链接]
蓝光币
623
发表于 2018-9-12 10:11:58 | 显示全部楼层 |阅读模式

布鲁姆兄弟/骗行无阻 The.Brothers.Bloom.2008.LIMITED.1080p.Bluray.x264-CBGB 10.91GB-1.jpg
◎译  名 布鲁姆兄弟/骗行无阻/骗骗喜好你
◎片  名 The Brothers Bloom
◎年  代 2008
◎产  地 美国
◎类  别 冒险/笑剧/剧情/恋爱
◎语  言 英语/法语/捷克语/日语
◎上映日期 2008-09-09
◎豆瓣评分 7.0/10 from 5,540 users
◎豆瓣链接 https://movie.douban.com/subject/2076162/
◎片  长 114 分钟
◎导  演 莱恩·约翰逊 Rian Johnson
◎主  演 艾德里安·布洛迪 Adrien Brody
      马克·鲁弗洛 Mark Ruffalo
      蕾切尔·薇兹 Rachel Weisz
      菊地凛子
      罗彼·考特拉尼 Robbie Coltrane

◎简  介

  史蒂芬(马克?鲁弗洛 Mark Ruffalo 饰)和布鲁姆(阿德里安?布洛迪 Adrien Brody 饰)是从小相依为命的兄弟,他们精于骗术,是以总遭到养怙恃的抛弃。渐渐地,他们习惯了这类生活方式。在圈套中,总是史蒂芬经营全局,布鲁姆配合实施。长大后,兄弟俩照旧靠骗术行走江湖,而且还多了一个伙伴——寡言少语但脱手非凡的日本女孩邦邦(菊地凛子 Rinko Kikuchi 饰)。三人合作,屡次得手,但布鲁姆已经厌倦了这类子虚的生活。这时,史蒂芬计划对独居的年轻富婆佩内洛普(蕾切尔?薇姿 Rachel Weisz 饰)动手,让布鲁姆充任诈财骗色的脚色。在交往中,布鲁姆发现佩内洛普是一个多才多艺的怪僻女孩,两人在打仗中擦出了恋爱的火花。可是,圈套行将收官,布鲁姆却苦于爱情与手足情的对峙,难以决定……

  1. Video
  2. ID                                       : 1
  3. Format                                   : AVC
  4. Format/Info                              : Advanced Video Codec
  5. Format profile                           : [url=/cdn-cgi/l/email-protection][email protected][/url]
  6. Format settings, CABAC                   : Yes
  7. Format settings, ReFrames                : 5 frames
  8. Codec ID                                 : V_MPEG4/ISO/AVC
  9. Duration                                 : 1h 53mn
  10. Bit rate                                 : 12.2 Mbps
  11. Width                                    : 1 920 pixels
  12. Height                                   : 800 pixels
  13. Display aspect ratio                     : 2.40:1
  14. Frame rate mode                          : Constant
  15. Frame rate                               : 23.976 fps
  16. Color space                              : YUV
  17. Chroma subsampling                       : 4:2:0
  18. Bit depth                                : 8 bits
  19. Scan type                                : Progressive
  20. Bits/(Pixel*Frame)                       : 0.332
  21. Stream size                              : 9.49 GiB (87%)
  22. Writing library                          : x264 core 68 r1183M f21daff
  23. Encoding settings                        : cabac=1 / ref=5 / deblock=1:0:0 / analyse=0x3:0x133 / me=umh / subme=7 / psy_rd=1.0:0.0 / mixed_ref=1 / me_range=16 / chroma_me=1 / trellis=1 / 8x8dct=1 / cqm=0 / deadzone=21,11 / chroma_qp_offset=-2 / threads=12 / nr=0 / decimate=1 / mbaff=0 / bframes=3 / b_pyramid=1 / b_adapt=1 / b_bias=0 / direct=1 / wpredb=1 / keyint=240 / keyint_min=24 / scenecut=40 / rc=2pass / bitrate=12234 / ratetol=1.0 / qcomp=0.60 / qpmin=10 / qpmax=51 / qpstep=4 / cplxblur=20.0 / qblur=0.5 / ip_ratio=1.40 / pb_ratio=1.30 / aq=1:1.00
  24. Language                                 : English
  25. Default                                  : Yes
  26. Forced                                   : No

  27. Audio
  28. ID                                       : 2
  29. Format                                   : DTS
  30. Format/Info                              : Digital Theater Systems
  31. Mode                                     : 16
  32. Format settings, Endianness              : Big
  33. Codec ID                                 : A_DTS
  34. Duration                                 : 1h 53mn
  35. Bit rate mode                            : Constant
  36. Bit rate                                 : 1 509 Kbps
  37. Channel(s)                               : 6 channels
  38. Channel positions                        : Front: L C R, Side: L R, LFE
  39. Sampling rate                            : 48.0 KHz
  40. Frame rate                               : 93.750 fps (512 spf)
  41. Bit depth                                : 24 bits
  42. Compression mode                         : Lossy
  43. Stream size                              : 1.20 GiB (11%)
  44. Language                                 : English
  45. Default                                  : Yes
  46. Forced                                   : No

  47. Text
  48. ID                                       : 3
  49. Format                                   : UTF-8
  50. Codec ID                                 : S_TEXT/UTF8
  51. Codec ID/Info                            : UTF-8 Plain Text
  52. Language                                 : English
  53. Default                                  : No
  54. Forced                                   : No

  55. Menu
  56. 00:00:00.000                             : en:00:00:00.000
  57. 00:07:12.307                             : en:00:07:12.307
  58. 00:17:42.895                             : en:00:17:42.895
  59. 00:23:53.265                             : en:00:23:53.265
  60. 00:31:01.943                             : en:00:31:01.943
  61. 00:36:08.708                             : en:00:36:08.708
  62. 00:45:46.535                             : en:00:45:46.535
  63. 00:50:20.976                             : en:00:50:20.976
  64. 00:57:49.132                             : en:00:57:49.132
  65. 01:03:10.036                             : en:01:03:10.036
  66. 01:12:57.039                             : en:01:12:57.039
  67. 01:20:21.900                             : en:01:20:21.900
  68. 01:28:59.668                             : en:01:28:59.668
  69. 01:36:29.867                             : en:01:36:29.867
  70. 01:42:40.821                             : en:01:42:40.821
  71. 01:46:57.703                             : en:01:46:57.703
复制代码

复制代码

布鲁姆兄弟/骗行无阻 The.Brothers.Bloom.2008.LIMITED.1080p.Bluray.x264-CBGB 10.91GB-2.png 布鲁姆兄弟/骗行无阻 The.Brothers.Bloom.2008.LIMITED.1080p.Bluray.x264-CBGB 10.91GB-3.png 布鲁姆兄弟/骗行无阻 The.Brothers.Bloom.2008.LIMITED.1080p.Bluray.x264-CBGB 10.91GB-4.png 布鲁姆兄弟/骗行无阻 The.Brothers.Bloom.2008.LIMITED.1080p.Bluray.x264-CBGB 10.91GB-5.png 布鲁姆兄弟/骗行无阻 The.Brothers.Bloom.2008.LIMITED.1080p.Bluray.x264-CBGB 10.91GB-6.png 布鲁姆兄弟/骗行无阻 The.Brothers.Bloom.2008.LIMITED.1080p.Bluray.x264-CBGB 10.91GB-7.png






回复

使用道具 举报

懒得打字嘛,点击右侧快捷回复 【右侧内容,后台自定义】
您需要登录后才可以回帖 登录 | 立即加入

本版积分规则

Archiver|小黑屋| 蓝光电影网 |网站地图

Copyright © 2021 Comsenz Inc. Powered by 蓝光电影网

蓝光电影网

本站内容由用户自主分享和转载自互联网,转载目的在于传递更多信息,并不代表本网赞同其观点和对其真实性负责。

如有侵权、违反国家法律政策行为,请联系我们,我们会第一时间及时清除和处理!

举报反馈邮箱:[email protected]

快速回复 返回顶部 返回列表