找回密码

蓝光电影网

查看: 1836|回复: 2

[喜剧] 微不足道/小事变大 Big.Nothing.2006.1080p.BluRay.x264-TiMELORDS 6.56GB

[复制链接]
蓝光币
623
发表于 2018-9-12 10:12:22 | 显示全部楼层 |阅读模式

眇乎小哉/小事变大 Big.Nothing.2006.1080p.BluRay.x264-TiMELORDS 6.56GB-1.jpg
◎译  名 眇乎小哉/小事变大
◎片  名 Big Nothing
◎年  代 2006
◎产  地 英国/加拿大
◎类  别 笑剧/犯罪/惊悚
◎语  言 英语
◎上映日期 2006-12-01(英国)
◎豆瓣评分 8.2/10 from 37,092 users
◎豆瓣链接 https://movie.douban.com/subject/1937257/
◎片  长 86 分钟
◎导  演 让-巴普蒂斯特·安德烈 Jean-Baptiste Andrea
◎主  演 西蒙·佩吉 Simon Pegg
      大卫·休默 David Schwimmer
      娜塔莎·麦克艾霍恩 Natascha McElhone
      爱丽丝·伊芙 Alice Eve
      乔·鲍里托 Jon Polito

◎简  介

  博士查理(大卫?休默 David Schwimmer 饰)比来碰到了麻烦。不但丢掉了大学里的工作,自己写的书也出书无望。为了不成为家里的负担,查理找到了份电话销售的工作,在那边熟悉了自来熟的同事加斯(西蒙?佩吉 Simon Pegg 饰)。加斯告诉了查理他的计划,即敲诈一位经常阅读色情网站的牧师。为了让家人过上富足的生活,查理答应加入,再加上加斯一夜情的女友朱茜(爱丽丝?伊芙 Alice Eve 饰),三人起头了这个计划。
  看似简单的计划,却画蛇添足的愈发偏离最初的目标。越来越多的人被卷进其中,工作越弄越大。而且,糟糕的是,查剃头现加斯和朱茜的背后似乎遮蔽着不成告人的奥秘,危险也在慢慢逼近查理,究竟终局会怎样……

  1. Video
  2. ID                                       : 1
  3. Format                                   : AVC
  4. Format/Info                              : Advanced Video Codec
  5. Format profile                           : [url=/cdn-cgi/l/email-protection][email protected][/url]
  6. Format settings, CABAC                   : Yes
  7. Format settings, ReFrames                : 5 frames
  8. Format settings, GOP                     : N=1
  9. Codec ID                                 : V_MPEG4/ISO/AVC
  10. Duration                                 : 1h 25mn
  11. Bit rate                                 : 9 468 Kbps
  12. Width                                    : 1 920 pixels
  13. Height                                   : 816 pixels
  14. Display aspect ratio                     : 2.35:1
  15. Frame rate mode                          : Constant
  16. Frame rate                               : 23.976 (24000/1001) fps
  17. Color space                              : YUV
  18. Chroma subsampling                       : 4:2:0
  19. Bit depth                                : 8 bits
  20. Scan type                                : Progressive
  21. Bits/(Pixel*Frame)                       : 0.252
  22. Stream size                              : 5.53 GiB (84%)
  23. Writing library                          : x264 core 68 r1179M 96e2229
  24. Encoding settings                        : cabac=1 / ref=5 / deblock=1:0:0 / analyse=0x3:0x133 / me=umh / subme=7 / psy_rd=1.0:0.0 / mixed_ref=1 / me_range=16 / chroma_me=1 / trellis=1 / 8x8dct=1 / cqm=0 / deadzone=21,11 / chroma_qp_offset=-2 / threads=12 / nr=0 / decimate=0 / mbaff=0 / bframes=3 / b_pyramid=1 / b_adapt=1 / b_bias=0 / direct=1 / wpredb=1 / keyint=250 / keyint_min=25 / scenecut=40 / rc=2pass / bitrate=9468 / ratetol=1.0 / qcomp=0.60 / qpmin=10 / qpmax=51 / qpstep=4 / cplxblur=20.0 / qblur=0.5 / ip_ratio=1.40 / pb_ratio=1.30 / aq=1:1.00
  25. Default                                  : Yes
  26. Forced                                   : No

  27. Audio
  28. ID                                       : 2
  29. Format                                   : DTS
  30. Format/Info                              : Digital Theater Systems
  31. Mode                                     : 16
  32. Format settings, Endianness              : Big
  33. Codec ID                                 : A_DTS
  34. Duration                                 : 1h 25mn
  35. Bit rate mode                            : Constant
  36. Bit rate                                 : 1 509 Kbps
  37. Channel(s)                               : 6 channels
  38. Channel positions                        : Front: L C R, Side: L R, LFE
  39. Sampling rate                            : 48.0 KHz
  40. Frame rate                               : 93.750 fps (512 spf)
  41. Bit depth                                : 24 bits
  42. Compression mode                         : Lossy
  43. Stream size                              : 923 MiB (14%)
  44. Default                                  : Yes
  45. Forced                                   : No

  46. Menu
  47. 00:00:00.000                             : en:01
  48. 00:06:56.541                             : en:02
  49. 00:13:45.825                             : en:03
  50. 00:21:54.438                             : en:04
  51. 00:29:08.372                             : en:05
  52. 00:35:06.730                             : en:06
  53. 00:41:36.994                             : en:07
  54. 00:48:52.263                             : en:08
  55. 00:56:55.704                             : en:09
  56. 01:03:23.425                             : en:10
  57. 01:12:07.323                             : en:11
  58. 01:18:46.722                             : en:12
复制代码

复制代码

眇乎小哉/小事变大 Big.Nothing.2006.1080p.BluRay.x264-TiMELORDS 6.56GB-2.png 眇乎小哉/小事变大 Big.Nothing.2006.1080p.BluRay.x264-TiMELORDS 6.56GB-3.png 眇乎小哉/小事变大 Big.Nothing.2006.1080p.BluRay.x264-TiMELORDS 6.56GB-4.png 眇乎小哉/小事变大 Big.Nothing.2006.1080p.BluRay.x264-TiMELORDS 6.56GB-5.png 眇乎小哉/小事变大 Big.Nothing.2006.1080p.BluRay.x264-TiMELORDS 6.56GB-6.png 眇乎小哉/小事变大 Big.Nothing.2006.1080p.BluRay.x264-TiMELORDS 6.56GB-7.png






回复

使用道具 举报

懒得打字嘛,点击右侧快捷回复 【右侧内容,后台自定义】
您需要登录后才可以回帖 登录 | 立即加入

本版积分规则

Archiver|小黑屋| 蓝光电影网 |网站地图

Copyright © 2021 Comsenz Inc. Powered by 蓝光电影网

蓝光电影网

本站内容由用户自主分享和转载自互联网,转载目的在于传递更多信息,并不代表本网赞同其观点和对其真实性负责。

如有侵权、违反国家法律政策行为,请联系我们,我们会第一时间及时清除和处理!

举报反馈邮箱:[email protected]

快速回复 返回顶部 返回列表