找回密码

蓝光电影网

查看: 673|回复: 2

[剧情] 魔毯/编织爱情的姑娘 Gabbeh.1996.1080p.BluRay.x264-GHOULS 5.46GB

[复制链接]
蓝光币
623
发表于 2018-9-12 10:13:21 | 显示全部楼层 |阅读模式


◎译  名 魔毯/编织恋爱的姑娘
◎片  名 ????
◎年  代 1996
◎产  地 伊朗/法国
◎类  别 剧情/悬疑/恋爱
◎语  言 波斯语
◎上映日期 1996-05-13(戛纳电影节)/1996-06-26(法国)
◎豆瓣评分 7.6/10 from 176 users
◎豆瓣链接 https://movie.douban.com/subject/1294810/
◎片  长 75 分钟/Japan: 73 分钟
◎导  演 莫森·玛克玛尔巴夫 Mohsen Makhmalbaf
◎主  演 Abbas Sayah
      Shaghayeh Djodat
      Hossein Moharami

◎简  介

  我看过的最美的一部伊朗电影!
  波斯绣毯天下著名,一对老佳耦就具有这么一张绣毯,上面绣着人物图案。当他们清洗绣毯时,从绣毯中奇异地走出一个姑娘,并报告了一个忧伤的故事:姑娘与一个骑手两情相悦,他们的恋爱却遭到了家属的否决,姑娘父亲甚至设备了各种障碍。在重重压力下,他们仍然苦苦对峙,姑外家庭属于游牧民族,经常迁移,痴情的骑手便牢牢尾随在前面,陪伴着姑娘直到假寓地址。安置下来后,姑娘决议与骑手私奔,就在他们策马狂奔出走的时辰,发现他们踪影的人群牢牢追逐,并用枪竣事了这对有情人的生命。本来这就是绣毯上的故事。

◎获奖情况

  第9届东京国际电影节  (1996)
  主比赛单元 最好影片(提名) 莫森·玛克玛尔巴夫
  主比赛单元 最好艺术进献奖 莫森·玛克玛尔巴夫

  1. Video
  2. ID                                       : 1
  3. Format                                   : AVC
  4. Format/Info                              : Advanced Video Codec
  5. Format profile                           : [url=/cdn-cgi/l/email-protection][email protected][/url]
  6. Format settings                          : CABAC / 4 Ref Frames
  7. Format settings, CABAC                   : Yes
  8. Format settings, RefFrames               : 4 frames
  9. Codec ID                                 : V_MPEG4/ISO/AVC
  10. Duration                                 : 1 h 12 min
  11. Bit rate                                 : 9 478 kb/s
  12. Width                                    : 1 920 pixels
  13. Height                                   : 1 040 pixels
  14. Display aspect ratio                     : 1.85:1
  15. Frame rate mode                          : Constant
  16. Frame rate                               : 23.976 (24000/1001) FPS
  17. Color space                              : YUV
  18. Chroma subsampling                       : 4:2:0
  19. Bit depth                                : 8 bits
  20. Scan type                                : Progressive
  21. Bits/(Pixel*Frame)                       : 0.198
  22. Stream size                              : 4.81 GiB (88%)
  23. Writing library                          : x264 core 155 r2901 7d0ff22
  24. Encoding settings                        : cabac=1 / ref=4 / deblock=1:-3:-3 / analyse=0x3:0x133 / me=umh / subme=8 / psy=1 / psy_rd=1.00:0.00 / mixed_ref=1 / me_range=16 / chroma_me=1 / trellis=1 / 8x8dct=1 / cqm=0 / deadzone=21,11 / fast_pskip=0 / chroma_qp_offset=-2 / threads=24 / lookahead_threads=4 / sliced_threads=0 / nr=0 / decimate=1 / interlaced=0 / bluray_compat=0 / constrained_intra=0 / bframes=3 / b_pyramid=2 / b_adapt=1 / b_bias=0 / direct=3 / weightb=1 / open_gop=0 / weightp=2 / keyint=250 / keyint_min=23 / scenecut=40 / intra_refresh=0 / rc_lookahead=50 / rc=2pass / mbtree=1 / bitrate=9478 / ratetol=1.0 / qcomp=0.60 / qpmin=0 / qpmax=69 / qpstep=4 / cplxblur=20.0 / qblur=0.5 / vbv_maxrate=62500 / vbv_bufsize=78125 / nal_hrd=none / filler=0 / ip_ratio=1.40 / aq=1:1.00
  25. Default                                  : Yes
  26. Forced                                   : No

  27. Audio #1
  28. ID                                       : 2
  29. Format                                   : AC-3
  30. Format/Info                              : Audio Coding 3
  31. Format settings, Endianness              : Big
  32. Codec ID                                 : A_AC3
  33. Duration                                 : 1 h 12 min
  34. Bit rate mode                            : Constant
  35. Bit rate                                 : 640 kb/s
  36. Channel(s)                               : 1 channel
  37. Channel positions                        : Front: C
  38. Sampling rate                            : 48.0 kHz
  39. Frame rate                               : 31.250 FPS (1536 SPF)
  40. Bit depth                                : 16 bits
  41. Compression mode                         : Lossy
  42. Stream size                              : 333 MiB (6%)
  43. Language                                 : English
  44. Service kind                             : Complete Main
  45. Default                                  : No
  46. Forced                                   : No

  47. Audio #2
  48. ID                                       : 3
  49. Format                                   : AC-3
  50. Format/Info                              : Audio Coding 3
  51. Format settings, Endianness              : Big
  52. Codec ID                                 : A_AC3
  53. Duration                                 : 1 h 12 min
  54. Bit rate mode                            : Constant
  55. Bit rate                                 : 640 kb/s
  56. Channel(s)                               : 1 channel
  57. Channel positions                        : Front: C
  58. Sampling rate                            : 48.0 kHz
  59. Frame rate                               : 31.250 FPS (1536 SPF)
  60. Bit depth                                : 16 bits
  61. Compression mode                         : Lossy
  62. Stream size                              : 333 MiB (6%)
  63. Language                                 : Persian
  64. Service kind                             : Complete Main
  65. Default                                  : Yes
  66. Forced                                   : No

  67. Text
  68. ID                                       : 4
  69. Format                                   : UTF-8
  70. Codec ID                                 : S_TEXT/UTF8
  71. Codec ID/Info                            : UTF-8 Plain Text
  72. Duration                                 : 1 h 12 min
  73. Bit rate                                 : 25 b/s
  74. Count of elements                        : 459
  75. Stream size                              : 13.3 KiB (0%)
  76. Language                                 : English
  77. Default                                  : Yes
  78. Forced                                   : No

  79. Menu
  80. 00:00:00.000                             : en:00:00:00.000
  81. 00:06:31.641                             : en:00:06:31.641
  82. 00:12:43.930                             : en:00:12:43.930
  83. 00:18:49.170                             : en:00:18:49.170
  84. 00:23:58.312                             : en:00:23:58.312
  85. 00:30:37.085                             : en:00:30:37.085
  86. 00:37:51.311                             : en:00:37:51.311
  87. 00:43:18.054                             : en:00:43:18.054
  88. 00:48:26.695                             : en:00:48:26.695
  89. 00:54:39.067                             : en:00:54:39.067
  90. 01:00:04.434                             : en:01:00:04.434
  91. 01:06:37.911                             : en:01:06:37.911
复制代码

复制代码









回复

使用道具 举报

懒得打字嘛,点击右侧快捷回复 【右侧内容,后台自定义】
您需要登录后才可以回帖 登录 | 立即加入

本版积分规则

Archiver|小黑屋| 蓝光电影网 |网站地图

Copyright © 2021 Comsenz Inc. Powered by 蓝光电影网

蓝光电影网

本站内容由用户自主分享和转载自互联网,转载目的在于传递更多信息,并不代表本网赞同其观点和对其真实性负责。

如有侵权、违反国家法律政策行为,请联系我们,我们会第一时间及时清除和处理!

举报反馈邮箱:[email protected]

快速回复 返回顶部 返回列表