找回密码

蓝光电影网

查看: 527|回复: 1

[剧情] 时间中的孩子/及时的孩子 The.Child.In.Time.2017.1080p.BluRay.x264-LATENCY 6.56GB

[复制链接]
蓝光币
623
发表于 2018-9-12 10:14:13 | 显示全部楼层 |阅读模式

时候中的孩子/实时的孩子 The.Child.In.Time.2017.1080p.BluRay.x264-LATENCY 6.56GB-1.jpg
◎译  名 时候中的孩子/实时的孩子/记忆中的拥抱(台)
◎片  名 The Child in Time
◎年  代 2017
◎产  地 英国
◎类  别 剧情
◎语  言 英语
◎上映日期 2017-09-24(英国)/2018(中国大陆)
◎豆瓣评分 6.4/10 from 1,480 users
◎豆瓣链接 https://movie.douban.com/subject/26977165/
◎片  长 90分钟
◎导  演 朱利安·法里诺 Julian Farino
◎主  演 本尼迪克特·康伯巴奇 Benedict Cumberbatch
      凯莉·麦克唐纳 Kelly Macdonald
      斯蒂芬·坎贝尔·莫尔 Stephen Campbell Moore
      莎卡亚·瑞丝 Saskia Reeves
      安娜·玛德蕾  Anna Madeley
      约翰·霍普金斯 John Hopkins
      露西·莱曼 Lucy Liemann
      理查德·杜登 Richard Durden
      杰拉尔丁·亚力山大 Geraldine Alexander
      艾略特·利维 Elliot Levey
      凯伦·布莱森 Karen Bryson
      埃勒维兹·亨伍德 Eloise Henwood
      劳伦斯·斯佩尔曼 Laurence Spellman
      杰拉德·摩纳科 Gerard Monaco

◎简  介

  该片按照伊恩·麦克尤恩的同名小说改编,故事报告原本幸运生在世的儿童文学作家斯蒂芬·刘易斯,因女儿的走失,自己悲观过活,变得和妻子渐行渐远。直到第二个孩子的来临才逐步化解了夫妻隔膜。

  1. Video
  2. ID                                       : 1
  3. Format                                   : AVC
  4. Format/Info                              : Advanced Video Codec
  5. Format profile                           : [url=/cdn-cgi/l/email-protection][email protected][/url]
  6. Format settings                          : CABAC / 4 Ref Frames
  7. Format settings, CABAC                   : Yes
  8. Format settings, ReFrames                : 4 frames
  9. Codec ID                                 : V_MPEG4/ISO/AVC
  10. Duration                                 : 1 h 29 min
  11. Bit rate                                 : 9 030 kb/s
  12. Width                                    : 1 920 pixels
  13. Height                                   : 1 080 pixels
  14. Display aspect ratio                     : 16:9
  15. Frame rate mode                          : Constant
  16. Frame rate                               : 25.000 FPS
  17. Color space                              : YUV
  18. Chroma subsampling                       : 4:2:0
  19. Bit depth                                : 8 bits
  20. Scan type                                : Progressive
  21. Bits/(Pixel*Frame)                       : 0.174
  22. Stream size                              : 5.62 GiB (86%)
  23. Writing library                          : x264 core 155 r2901 7d0ff22
  24. Encoding settings                        : cabac=1 / ref=4 / deblock=1:0:0 / analyse=0x3:0x113 / me=umh / subme=8 / psy=1 / psy_rd=1.00:0.00 / mixed_ref=1 / me_range=16 / chroma_me=1 / trellis=2 / 8x8dct=1 / cqm=0 / deadzone=21,11 / fast_pskip=0 / chroma_qp_offset=-2 / threads=34 / lookahead_threads=5 / sliced_threads=0 / nr=0 / decimate=1 / interlaced=0 / bluray_compat=0 / constrained_intra=0 / bframes=3 / b_pyramid=2 / b_adapt=1 / b_bias=0 / direct=3 / weightb=1 / open_gop=0 / weightp=2 / keyint=250 / keyint_min=25 / scenecut=40 / intra_refresh=0 / rc_lookahead=50 / rc=2pass / mbtree=1 / bitrate=9030 / ratetol=1.0 / qcomp=0.60 / qpmin=0 / qpmax=69 / qpstep=4 / cplxblur=20.0 / qblur=0.5 / ip_ratio=1.40 / aq=1:1.00
  25. Default                                  : Yes
  26. Forced                                   : No

  27. Audio
  28. ID                                       : 2
  29. Format                                   : DTS
  30. Format/Info                              : Digital Theater Systems
  31. Codec ID                                 : A_DTS
  32. Duration                                 : 1 h 29 min
  33. Bit rate mode                            : Constant
  34. Bit rate                                 : 1 509 kb/s
  35. Channel(s)                               : 6 channels
  36. Channel positions                        : Front: L C R, Side: L R, LFE
  37. Sampling rate                            : 48.0 kHz
  38. Frame rate                               : 93.750 FPS (512 SPF)
  39. Bit depth                                : 24 bits
  40. Compression mode                         : Lossy
  41. Stream size                              : 961 MiB (14%)
  42. Title                                    : English
  43. Language                                 : English
  44. Default                                  : No
  45. Forced                                   : No

  46. Menu
  47. 00:00:00.000                             : en:00:00:00.000
  48. 00:10:06.640                             : en:00:10:06.640
  49. 00:20:35.240                             : en:00:20:35.240
  50. 00:32:16.200                             : en:00:32:16.200
  51. 00:42:43.800                             : en:00:42:43.800
  52. 00:54:57.480                             : en:00:54:57.480
  53. 01:08:56.880                             : en:01:08:56.880
  54. 01:28:11.360                             : en:01:28:11.360
复制代码

复制代码

时候中的孩子/实时的孩子 The.Child.In.Time.2017.1080p.BluRay.x264-LATENCY 6.56GB-2.png 时候中的孩子/实时的孩子 The.Child.In.Time.2017.1080p.BluRay.x264-LATENCY 6.56GB-3.png 时候中的孩子/实时的孩子 The.Child.In.Time.2017.1080p.BluRay.x264-LATENCY 6.56GB-4.png







回复

使用道具 举报

懒得打字嘛,点击右侧快捷回复 【右侧内容,后台自定义】
您需要登录后才可以回帖 登录 | 立即加入

本版积分规则

Archiver|小黑屋| 蓝光电影网 |网站地图

Copyright © 2021 Comsenz Inc. Powered by 蓝光电影网

蓝光电影网

本站内容由用户自主分享和转载自互联网,转载目的在于传递更多信息,并不代表本网赞同其观点和对其真实性负责。

如有侵权、违反国家法律政策行为,请联系我们,我们会第一时间及时清除和处理!

举报反馈邮箱:[email protected]

快速回复 返回顶部 返回列表