找回密码

蓝光电影网

查看: 1243|回复: 8

[喜剧] 绝地战警2/重案梦幻组2 Bad.Boys.II.2003.REMASTERED.1080p.BluRay.x264.TrueHD.7.1.Atmos-SWTYBLZ 20.74GB

[复制链接]
蓝光币
623
发表于 2018-9-12 10:18:15 | 显示全部楼层 |阅读模式

绝地战警2/重案梦幻组2 Bad.Boys.II.2003.REMASTERED.1080p.BluRay.x264.TrueHD.7.1.Atmos-SWTYBLZ 20.74GB-1.jpg
◎译  名 绝地战警2/重案梦幻组2/坏小子2
◎片  名 Bad Boys II
◎年  代 2003
◎产  地 美国
◎类  别 笑剧/行动/犯罪
◎语  言 英语/葡萄牙语
◎上映日期 2003-07-18(美国)
◎豆瓣评分 7.4/10 from 21,439 users
◎豆瓣链接 https://movie.douban.com/subject/1307917/
◎片  长 147 分钟
◎导  演 迈克尔·贝 Michael Bay
◎主  演 马丁·劳伦斯 Martin Lawrence
      威尔·史姑娘 Will Smith
      詹迪·莫拉 Jordi Mollà
      加布里埃尔·尤尼恩 Gabrielle Union
      彼得·斯特曼 Peter Stormare
      特里萨·兰德尔 Theresa Randle
      乔·潘托里亚诺 Joe Pantoliano
      迈克尔·珊农 Michael Shannon
      乔恩·塞达 Jon Seda
      尤尔·瓦斯克斯 Yul Vazquez
      贾森·曼努尔·奥拉扎巴尔 Jason Manuel Olazabal
      奥托·桑切斯 Otto Sanchez
      亨利·罗林斯 Henry Rollins
      安东尼·科隆 Antoni Corone
      Gary Nickens

◎简  介

  本片是《坏小子》的续篇,故事仍发生在迈阿密。迈阿密的毒品买卖于一夜之间变得异常疯狂众多,各个贩毒团体之间的火拼也接连不竭,为了观察贩毒团体内部的重重冲突,迈阿密警局的一对“黄金”同伴,潇洒的劳瑞(威尔?史姑娘)和神叨的宾纳(马丁?劳伦斯)再度临危受命,很快,两人摸清工作的后果结果:一股外来的贩毒势力正在侵入迈阿密的毒品市场,为首的毒枭野心勃勃,意图控制全部美国甚至欧洲的毒品买卖,建立贩毒王国。
  警方展开行动围歼贩毒团体时,一位DEA的女卧底西德妮(盖布瑞亚?尤妮恩)被毒贩劫持,对方开出的条件是,劳瑞和宾纳必须去干违法的事,这可难倒了两人,由于标致的西德妮不单是宾纳的亲妹妹,还是劳瑞的情人。

  1. Video
  2. ID                                       : 1
  3. Format                                   : AVC
  4. Format/Info                              : Advanced Video Codec
  5. Format profile                           : [url=/cdn-cgi/l/email-protection][email protected][/url]
  6. Format settings                          : CABAC / 5 Ref Frames
  7. Format settings, CABAC                   : Yes
  8. Format settings, ReFrames                : 5 frames
  9. Codec ID                                 : V_MPEG4/ISO/AVC
  10. Duration                                 : 2 h 26 min
  11. Bit rate                                 : 13.3 Mb/s
  12. Width                                    : 1 920 pixels
  13. Height                                   : 802 pixels
  14. Display aspect ratio                     : 2.40:1
  15. Frame rate mode                          : Constant
  16. Frame rate                               : 23.976 (24000/1001) FPS
  17. Color space                              : YUV
  18. Chroma subsampling                       : 4:2:0
  19. Bit depth                                : 8 bits
  20. Scan type                                : Progressive
  21. Bits/(Pixel*Frame)                       : 0.361
  22. Stream size                              : 13.6 GiB (66%)
  23. Title                                    : Bad.Boys.II.2003.REMASTERED.1080p.BluRay.x264.TrueHD.7.1.Atmos-SWTYBLZ
  24. Writing library                          : x264 core 155 r2901 7d0ff22
  25. Encoding settings                        : cabac=1 / ref=5 / deblock=1:-1:-1 / analyse=0x3:0x133 / me=umh / subme=10 / psy=1 / psy_rd=1.00:0.15 / mixed_ref=1 / me_range=48 / chroma_me=1 / trellis=2 / 8x8dct=1 / cqm=0 / deadzone=21,11 / fast_pskip=1 / chroma_qp_offset=-3 / threads=25 / lookahead_threads=4 / sliced_threads=0 / nr=0 / decimate=0 / interlaced=0 / bluray_compat=0 / constrained_intra=0 / bframes=8 / b_pyramid=2 / b_adapt=2 / b_bias=0 / direct=3 / weightb=1 / open_gop=0 / weightp=2 / keyint=250 / keyint_min=23 / scenecut=40 / intra_refresh=0 / rc_lookahead=60 / rc=crf / mbtree=1 / crf=21.0 / qcomp=0.60 / qpmin=0 / qpmax=69 / qpstep=4 / ip_ratio=1.40 / aq=1:1.00
  26. Default                                  : Yes
  27. Forced                                   : No

  28. Audio #1
  29. ID                                       : 2
  30. Format                                   : TrueHD
  31. Format profile                           : TrueHD+Atmos / TrueHD
  32. Codec ID                                 : A_TRUEHD
  33. Duration                                 : 2 h 26 min
  34. Bit rate mode                            : Variable
  35. Bit rate                                 : 5 774 kb/s
  36. Maximum bit rate                         : 8 961 kb/s
  37. Channel(s)                               : Object Based / 8 channels
  38. Channel positions                        : Object Based / Front: L C R, Side: L R, Back: L R, LFE
  39. Sampling rate                            :  / 48.0 kHz
  40. Frame rate                               : 1 200.000 FPS (40 SPF)
  41. Compression mode                         : Lossless
  42. Stream size                              : 5.92 GiB (29%)
  43. Title                                    : Bad.Boys.II.2003.REMASTERED.1080p.BluRay.x264.TrueHD.7.1.Atmos-SWTYBLZ
  44. Language                                 : English
  45. Default                                  : Yes
  46. Forced                                   : No

  47. Audio #2
  48. ID                                       : 3
  49. Format                                   : AC-3
  50. Format/Info                              : Audio Coding 3
  51. Codec ID                                 : A_AC3
  52. Duration                                 : 2 h 26 min
  53. Bit rate mode                            : Constant
  54. Bit rate                                 : 640 kb/s
  55. Channel(s)                               : 6 channels
  56. Channel positions                        : Front: L C R, Side: L R, LFE
  57. Sampling rate                            : 48.0 kHz
  58. Frame rate                               : 31.250 FPS (1536 SPF)
  59. Bit depth                                : 16 bits
  60. Compression mode                         : Lossy
  61. Stream size                              : 672 MiB (3%)
  62. Title                                    : Bad.Boys.II.2003.REMASTERED.1080p.BluRay.x264.TrueHD.7.1.Atmos-SWTYBLZ
  63. Language                                 : English
  64. Service kind                             : Complete Main
  65. Default                                  : No
  66. Forced                                   : No

  67. Text #1
  68. ID                                       : 4
  69. Format                                   : UTF-8
  70. Codec ID                                 : S_TEXT/UTF8
  71. Codec ID/Info                            : UTF-8 Plain Text
  72. Duration                                 : 2 h 20 min
  73. Bit rate                                 : 69 b/s
  74. Count of elements                        : 1912
  75. Stream size                              : 71.6 KiB (0%)
  76. Title                                    : English-SRT
  77. Language                                 : English
  78. Default                                  : Yes
  79. Forced                                   : No

  80. Text #2
  81. ID                                       : 5
  82. Format                                   : PGS
  83. Muxing mode                              : zlib
  84. Codec ID                                 : S_HDMV/PGS
  85. Codec ID/Info                            : Picture based subtitle format used on BDs/HD-DVDs
  86. Duration                                 : 2 h 20 min
  87. Bit rate                                 : 40.2 kb/s
  88. Count of elements                        : 3824
  89. Stream size                              : 40.3 MiB (0%)
  90. Title                                    : English-PGS
  91. Language                                 : English
  92. Default                                  : No
  93. Forced                                   : No

  94. Text #3
  95. ID                                       : 6
  96. Format                                   : PGS
  97. Muxing mode                              : zlib
  98. Codec ID                                 : S_HDMV/PGS
  99. Codec ID/Info                            : Picture based subtitle format used on BDs/HD-DVDs
  100. Duration                                 : 2 h 25 min
  101. Bit rate                                 : 45.3 kb/s
  102. Count of elements                        : 4518
  103. Stream size                              : 47.0 MiB (0%)
  104. Title                                    : English-SDH-PGS
  105. Language                                 : English
  106. Default                                  : No
  107. Forced                                   : No

  108. Text #4
  109. ID                                       : 7
  110. Format                                   : PGS
  111. Muxing mode                              : zlib
  112. Codec ID                                 : S_HDMV/PGS
  113. Codec ID/Info                            : Picture based subtitle format used on BDs/HD-DVDs
  114. Duration                                 : 2 h 20 min
  115. Bit rate                                 : 40.2 kb/s
  116. Count of elements                        : 3832
  117. Stream size                              : 40.3 MiB (0%)
  118. Title                                    : English-PGS
  119. Language                                 : English
  120. Default                                  : No
  121. Forced                                   : No

  122. Text #5
  123. ID                                       : 8
  124. Format                                   : PGS
  125. Muxing mode                              : zlib
  126. Codec ID                                 : S_HDMV/PGS
  127. Codec ID/Info                            : Picture based subtitle format used on BDs/HD-DVDs
  128. Duration                                 : 2 h 25 min
  129. Bit rate                                 : 45.3 kb/s
  130. Count of elements                        : 4518
  131. Stream size                              : 47.0 MiB (0%)
  132. Title                                    : English-SDH-PGS
  133. Language                                 : English
  134. Default                                  : No
  135. Forced                                   : No

  136. Text #6
  137. ID                                       : 9
  138. Format                                   : PGS
  139. Muxing mode                              : zlib
  140. Codec ID                                 : S_HDMV/PGS
  141. Codec ID/Info                            : Picture based subtitle format used on BDs/HD-DVDs
  142. Duration                                 : 2 h 21 min
  143. Bit rate                                 : 19.2 kb/s
  144. Count of elements                        : 3844
  145. Stream size                              : 19.4 MiB (0%)
  146. Title                                    : Arabic-PGS
  147. Language                                 : Arabic
  148. Default                                  : No
  149. Forced                                   : No

  150. Text #7
  151. ID                                       : 10
  152. Format                                   : PGS
  153. Muxing mode                              : zlib
  154. Codec ID                                 : S_HDMV/PGS
  155. Codec ID/Info                            : Picture based subtitle format used on BDs/HD-DVDs
  156. Duration                                 : 2 h 21 min
  157. Bit rate                                 : 26.9 kb/s
  158. Count of elements                        : 3880
  159. Stream size                              : 27.1 MiB (0%)
  160. Title                                    : Chinese-PGS
  161. Language                                 : Chinese
  162. Default                                  : No
  163. Forced                                   : No

  164. Text #8
  165. ID                                       : 11
  166. Format                                   : PGS
  167. Muxing mode                              : zlib
  168. Codec ID                                 : S_HDMV/PGS
  169. Codec ID/Info                            : Picture based subtitle format used on BDs/HD-DVDs
  170. Duration                                 : 2 h 21 min
  171. Bit rate                                 : 28.2 kb/s
  172. Count of elements                        : 3822
  173. Stream size                              : 28.5 MiB (0%)
  174. Title                                    : Croatian-PGS
  175. Language                                 : Croatian
  176. Default                                  : No
  177. Forced                                   : No

  178. Text #9
  179. ID                                       : 12
  180. Format                                   : PGS
  181. Muxing mode                              : zlib
  182. Codec ID                                 : S_HDMV/PGS
  183. Codec ID/Info                            : Picture based subtitle format used on BDs/HD-DVDs
  184. Duration                                 : 2 h 21 min
  185. Bit rate                                 : 31.6 kb/s
  186. Count of elements                        : 3782
  187. Stream size                              : 31.9 MiB (0%)
  188. Title                                    : Czech-PGS
  189. Language                                 : Czech
  190. Default                                  : No
  191. Forced                                   : No

  192. Text #10
  193. ID                                       : 13
  194. Format                                   : PGS
  195. Muxing mode                              : zlib
  196. Codec ID                                 : S_HDMV/PGS
  197. Codec ID/Info                            : Picture based subtitle format used on BDs/HD-DVDs
  198. Duration                                 : 2 h 21 min
  199. Bit rate                                 : 31.3 kb/s
  200. Count of elements                        : 3286
  201. Stream size                              : 31.6 MiB (0%)
  202. Title                                    : Danish-PGS
  203. Language                                 : Danish
  204. Default                                  : No
  205. Forced                                   : No

  206. Text #11
  207. ID                                       : 14
  208. Format                                   : PGS
  209. Muxing mode                              : zlib
  210. Codec ID                                 : S_HDMV/PGS
  211. Codec ID/Info                            : Picture based subtitle format used on BDs/HD-DVDs
  212. Duration                                 : 2 h 20 min
  213. Bit rate                                 : 30.7 kb/s
  214. Count of elements                        : 2647
  215. Stream size                              : 30.9 MiB (0%)
  216. Title                                    : Dutch-PGS
  217. Language                                 : Dutch
  218. Default                                  : No
  219. Forced                                   : No

  220. Text #12
  221. ID                                       : 15
  222. Format                                   : PGS
  223. Muxing mode                              : zlib
  224. Codec ID                                 : S_HDMV/PGS
  225. Codec ID/Info                            : Picture based subtitle format used on BDs/HD-DVDs
  226. Duration                                 : 2 h 21 min
  227. Bit rate                                 : 30.1 kb/s
  228. Count of elements                        : 2982
  229. Stream size                              : 30.4 MiB (0%)
  230. Title                                    : Finnish-PGS
  231. Language                                 : Finnish
  232. Default                                  : No
  233. Forced                                   : No

  234. Text #13
  235. ID                                       : 16
  236. Format                                   : PGS
  237. Muxing mode                              : zlib
  238. Codec ID                                 : S_HDMV/PGS
  239. Codec ID/Info                            : Picture based subtitle format used on BDs/HD-DVDs
  240. Duration                                 : 2 h 25 min
  241. Bit rate                                 : 27.0 kb/s
  242. Count of elements                        : 3586
  243. Stream size                              : 28.1 MiB (0%)
  244. Title                                    : French-PGS
  245. Language                                 : French
  246. Default                                  : No
  247. Forced                                   : No

  248. Text #14
  249. ID                                       : 17
  250. Format                                   : PGS
  251. Muxing mode                              : zlib
  252. Codec ID                                 : S_HDMV/PGS
  253. Codec ID/Info                            : Picture based subtitle format used on BDs/HD-DVDs
  254. Duration                                 : 2 h 21 min
  255. Bit rate                                 : 44.1 kb/s
  256. Count of elements                        : 3951
  257. Stream size                              : 44.5 MiB (0%)
  258. Title                                    : German-PGS
  259. Language                                 : German
  260. Default                                  : No
  261. Forced                                   : No

  262. Text #15
  263. ID                                       : 18
  264. Format                                   : PGS
  265. Muxing mode                              : zlib
  266. Codec ID                                 : S_HDMV/PGS
  267. Codec ID/Info                            : Picture based subtitle format used on BDs/HD-DVDs
  268. Duration                                 : 2 h 21 min
  269. Bit rate                                 : 35.3 kb/s
  270. Count of elements                        : 3738
  271. Stream size                              : 35.6 MiB (0%)
  272. Title                                    : Greek-PGS
  273. Language                                 : Greek
  274. Default                                  : No
  275. Forced                                   : No

  276. Text #16
  277. ID                                       : 19
  278. Format                                   : PGS
  279. Muxing mode                              : zlib
  280. Codec ID                                 : S_HDMV/PGS
  281. Codec ID/Info                            : Picture based subtitle format used on BDs/HD-DVDs
  282. Duration                                 : 2 h 20 min
  283. Bit rate                                 : 29.4 kb/s
  284. Count of elements                        : 3838
  285. Stream size                              : 29.6 MiB (0%)
  286. Title                                    : Hebrew-PGS
  287. Language                                 : Hebrew
  288. Default                                  : No
  289. Forced                                   : No

  290. Text #17
  291. ID                                       : 20
  292. Format                                   : PGS
  293. Muxing mode                              : zlib
  294. Codec ID                                 : S_HDMV/PGS
  295. Codec ID/Info                            : Picture based subtitle format used on BDs/HD-DVDs
  296. Duration                                 : 2 h 21 min
  297. Bit rate                                 : 27.6 kb/s
  298. Count of elements                        : 3846
  299. Stream size                              : 27.8 MiB (0%)
  300. Title                                    : Hungarian-PGS
  301. Language                                 : Hungarian
  302. Default                                  : No
  303. Forced                                   : No

  304. Text #18
  305. ID                                       : 21
  306. Format                                   : PGS
  307. Muxing mode                              : zlib
  308. Codec ID                                 : S_HDMV/PGS
  309. Codec ID/Info                            : Picture based subtitle format used on BDs/HD-DVDs
  310. Duration                                 : 2 h 20 min
  311. Bit rate                                 : 36.5 kb/s
  312. Count of elements                        : 3822
  313. Stream size                              : 36.8 MiB (0%)
  314. Title                                    : Italian-PGS
  315. Language                                 : Italian
  316. Default                                  : No
  317. Forced                                   : No

  318. Text #19
  319. ID                                       : 22
  320. Format                                   : PGS
  321. Muxing mode                              : zlib
  322. Codec ID                                 : S_HDMV/PGS
  323. Codec ID/Info                            : Picture based subtitle format used on BDs/HD-DVDs
  324. Duration                                 : 2 h 20 min
  325. Bit rate                                 : 27.2 kb/s
  326. Count of elements                        : 4193
  327. Stream size                              : 27.4 MiB (0%)
  328. Title                                    : Japanese-pGS
  329. Language                                 : Japanese
  330. Default                                  : No
  331. Forced                                   : No

  332. Text #20
  333. ID                                       : 23
  334. Format                                   : PGS
  335. Muxing mode                              : zlib
  336. Codec ID                                 : S_HDMV/PGS
  337. Codec ID/Info                            : Picture based subtitle format used on BDs/HD-DVDs
  338. Duration                                 : 2 h 21 min
  339. Bit rate                                 : 27.2 kb/s
  340. Count of elements                        : 3874
  341. Stream size                              : 27.5 MiB (0%)
  342. Title                                    : Korean-PGS
  343. Language                                 : Korean
  344. Default                                  : No
  345. Forced                                   : No

  346. Text #21
  347. ID                                       : 24
  348. Format                                   : PGS
  349. Muxing mode                              : zlib
  350. Codec ID                                 : S_HDMV/PGS
  351. Codec ID/Info                            : Picture based subtitle format used on BDs/HD-DVDs
  352. Duration                                 : 2 h 26 min
  353. Bit rate                                 : 27.7 kb/s
  354. Count of elements                        : 3518
  355. Stream size                              : 28.9 MiB (0%)
  356. Title                                    : Norwegian-PGS
  357. Language                                 : Norwegian
  358. Default                                  : No
  359. Forced                                   : No

  360. Text #22
  361. ID                                       : 25
  362. Format                                   : PGS
  363. Muxing mode                              : zlib
  364. Codec ID                                 : S_HDMV/PGS
  365. Codec ID/Info                            : Picture based subtitle format used on BDs/HD-DVDs
  366. Duration                                 : 2 h 21 min
  367. Bit rate                                 : 31.3 kb/s
  368. Count of elements                        : 3764
  369. Stream size                              : 31.6 MiB (0%)
  370. Title                                    : Polish-PGS
  371. Language                                 : Polish
  372. Default                                  : No
  373. Forced                                   : No

  374. Text #23
  375. ID                                       : 26
  376. Format                                   : PGS
  377. Muxing mode                              : zlib
  378. Codec ID                                 : S_HDMV/PGS
  379. Codec ID/Info                            : Picture based subtitle format used on BDs/HD-DVDs
  380. Duration                                 : 2 h 21 min
  381. Bit rate                                 : 31.0 kb/s
  382. Count of elements                        : 3738
  383. Stream size                              : 31.3 MiB (0%)
  384. Title                                    : Portuguese-PGS
  385. Language                                 : Portuguese
  386. Default                                  : No
  387. Forced                                   : No

  388. Text #24
  389. ID                                       : 27
  390. Format                                   : PGS
  391. Muxing mode                              : zlib
  392. Codec ID                                 : S_HDMV/PGS
  393. Codec ID/Info                            : Picture based subtitle format used on BDs/HD-DVDs
  394. Duration                                 : 2 h 26 min
  395. Bit rate                                 : 38.2 kb/s
  396. Count of elements                        : 3792
  397. Stream size                              : 39.9 MiB (0%)
  398. Title                                    : Portuguese-PGS
  399. Language                                 : Portuguese
  400. Default                                  : No
  401. Forced                                   : No

  402. Text #25
  403. ID                                       : 28
  404. Format                                   : PGS
  405. Muxing mode                              : zlib
  406. Codec ID                                 : S_HDMV/PGS
  407. Codec ID/Info                            : Picture based subtitle format used on BDs/HD-DVDs
  408. Duration                                 : 2 h 21 min
  409. Bit rate                                 : 31.0 kb/s
  410. Count of elements                        : 3554
  411. Stream size                              : 31.3 MiB (0%)
  412. Title                                    : Romanian-PGS
  413. Language                                 : Romanian
  414. Default                                  : No
  415. Forced                                   : No

  416. Text #26
  417. ID                                       : 29
  418. Format                                   : PGS
  419. Muxing mode                              : zlib
  420. Codec ID                                 : S_HDMV/PGS
  421. Codec ID/Info                            : Picture based subtitle format used on BDs/HD-DVDs
  422. Duration                                 : 2 h 21 min
  423. Bit rate                                 : 41.9 kb/s
  424. Count of elements                        : 3964
  425. Stream size                              : 42.3 MiB (0%)
  426. Title                                    : Russian-PGS
  427. Language                                 : Russian
  428. Default                                  : No
  429. Forced                                   : No

  430. Text #27
  431. ID                                       : 30
  432. Format                                   : PGS
  433. Muxing mode                              : zlib
  434. Codec ID                                 : S_HDMV/PGS
  435. Codec ID/Info                            : Picture based subtitle format used on BDs/HD-DVDs
  436. Duration                                 : 2 h 21 min
  437. Bit rate                                 : 34.3 kb/s
  438. Count of elements                        : 3952
  439. Stream size                              : 34.6 MiB (0%)
  440. Title                                    : Spanish-PGS
  441. Language                                 : Spanish
  442. Default                                  : No
  443. Forced                                   : No

  444. Text #28
  445. ID                                       : 31
  446. Format                                   : PGS
  447. Muxing mode                              : zlib
  448. Codec ID                                 : S_HDMV/PGS
  449. Codec ID/Info                            : Picture based subtitle format used on BDs/HD-DVDs
  450. Duration                                 : 2 h 21 min
  451. Bit rate                                 : 37.3 kb/s
  452. Count of elements                        : 3904
  453. Stream size                              : 37.6 MiB (0%)
  454. Title                                    : Spanish-PGS
  455. Language                                 : Spanish
  456. Default                                  : No
  457. Forced                                   : No

  458. Text #29
  459. ID                                       : 32
  460. Format                                   : PGS
  461. Muxing mode                              : zlib
  462. Codec ID                                 : S_HDMV/PGS
  463. Codec ID/Info                            : Picture based subtitle format used on BDs/HD-DVDs
  464. Duration                                 : 2 h 25 min
  465. Bit rate                                 : 29.1 kb/s
  466. Count of elements                        : 3391
  467. Stream size                              : 30.3 MiB (0%)
  468. Title                                    : Swedish-PGS
  469. Language                                 : Swedish
  470. Default                                  : No
  471. Forced                                   : No

  472. Text #30
  473. ID                                       : 33
  474. Format                                   : PGS
  475. Muxing mode                              : zlib
  476. Codec ID                                 : S_HDMV/PGS
  477. Codec ID/Info                            : Picture based subtitle format used on BDs/HD-DVDs
  478. Duration                                 : 2 h 21 min
  479. Bit rate                                 : 34.0 kb/s
  480. Count of elements                        : 3874
  481. Stream size                              : 34.3 MiB (0%)
  482. Title                                    : Thai-PGS
  483. Language                                 : Thai
  484. Default                                  : No
  485. Forced                                   : No

  486. Text #31
  487. ID                                       : 34
  488. Format                                   : PGS
  489. Muxing mode                              : zlib
  490. Codec ID                                 : S_HDMV/PGS
  491. Codec ID/Info                            : Picture based subtitle format used on BDs/HD-DVDs
  492. Duration                                 : 2 h 21 min
  493. Bit rate                                 : 38.0 kb/s
  494. Count of elements                        : 3868
  495. Stream size                              : 38.4 MiB (0%)
  496. Title                                    : Turkish-PGS
  497. Language                                 : Turkish
  498. Default                                  : No
  499. Forced                                   : No

  500. Text #32
  501. ID                                       : 35
  502. Format                                   : PGS
  503. Muxing mode                              : zlib
  504. Codec ID                                 : S_HDMV/PGS
  505. Codec ID/Info                            : Picture based subtitle format used on BDs/HD-DVDs
  506. Duration                                 : 57 min 30 s
  507. Bit rate                                 : 239 b/s
  508. Count of elements                        : 14
  509. Stream size                              : 101 KiB (0%)
  510. Title                                    : French-FORCED-PGS
  511. Language                                 : French
  512. Default                                  : No
  513. Forced                                   : No

  514. Text #33
  515. ID                                       : 36
  516. Format                                   : PGS
  517. Muxing mode                              : zlib
  518. Codec ID                                 : S_HDMV/PGS
  519. Codec ID/Info                            : Picture based subtitle format used on BDs/HD-DVDs
  520. Duration                                 : 1 h 34 min
  521. Bit rate                                 : 288 b/s
  522. Count of elements                        : 26
  523. Stream size                              : 200 KiB (0%)
  524. Title                                    : Japanese-FORCED-PGS
  525. Language                                 : Japanese
  526. Default                                  : No
  527. Forced                                   : No

  528. Menu
  529. 00:00:00.000                             : :Chapter 1
  530. 00:11:05.498                             : :Chapter 2
  531. 00:21:55.397                             : :Chapter 3
  532. 00:39:55.768                             : :Chapter 4
  533. 00:45:28.684                             : :Chapter 5
  534. 00:53:28.788                             : :Chapter 6
  535. 00:59:02.247                             : :Chapter 7
  536. 01:06:27.066                             : :Chapter 8
  537. 01:11:29.618                             : :Chapter 9
  538. 01:17:54.169                             : :Chapter 10
  539. 01:30:28.131                             : :Chapter 11
  540. 01:37:39.228                             : :Chapter 12
  541. 01:45:54.765                             : :Chapter 13
  542. 01:56:47.625                             : :Chapter 14
  543. 02:05:08.584                             : :Chapter 15
  544. 02:16:07.701                             : :Chapter 16
复制代码

复制代码

绝地战警2/重案梦幻组2 Bad.Boys.II.2003.REMASTERED.1080p.BluRay.x264.TrueHD.7.1.Atmos-SWTYBLZ 20.74GB-2.png 绝地战警2/重案梦幻组2 Bad.Boys.II.2003.REMASTERED.1080p.BluRay.x264.TrueHD.7.1.Atmos-SWTYBLZ 20.74GB-3.png 绝地战警2/重案梦幻组2 Bad.Boys.II.2003.REMASTERED.1080p.BluRay.x264.TrueHD.7.1.Atmos-SWTYBLZ 20.74GB-4.png







回复

使用道具 举报

蓝光币
489
发表于 2020-1-30 18:15:27 | 显示全部楼层

楼主太厉害了!楼主,电影应该很好看我觉得蓝光电影网真是个好地方!
回复 支持 反对

使用道具 举报

蓝光币
119
发表于 2020-10-14 14:46:10 | 显示全部楼层

既然你诚信诚意的推荐了,那我就勉为其难的看看吧!蓝光电影网不走平凡路。
回复 支持 反对

使用道具 举报

懒得打字嘛,点击右侧快捷回复 【右侧内容,后台自定义】
您需要登录后才可以回帖 登录 | 立即加入

本版积分规则

Archiver|小黑屋| 蓝光电影网 |网站地图

Copyright © 2021 Comsenz Inc. Powered by 蓝光电影网

蓝光电影网

本站内容由用户自主分享和转载自互联网,转载目的在于传递更多信息,并不代表本网赞同其观点和对其真实性负责。

如有侵权、违反国家法律政策行为,请联系我们,我们会第一时间及时清除和处理!

举报反馈邮箱:[email protected]

快速回复 返回顶部 返回列表