找回密码

蓝光电影网

查看: 1319|回复: 8

[动作] 全球崩溃 Global.Meltdown.2017.1080p.BluRay.x264-GETiT 5.47GB

[复制链接]
蓝光币
623
发表于 2018-9-12 10:18:35 | 显示全部楼层 |阅读模式

全球解体 Global.Meltdown.2017.1080p.BluRay.x264-GETiT 5.47GB-1.jpg
◎译  名 全球解体
◎片  名 Global Meltdown
◎年  代 2018
◎产  地 加拿大
◎类  别 行动/科幻/惊悚
◎语  言 英语
◎上映日期 2017-07-07(加拿大)
◎豆瓣评分 /10 from 0 users
◎豆瓣链接 https://movie.douban.com/subject/30190442/
◎片  长 90分钟
◎导  演 Daniel Gilboy
◎主  演 迈克尔·帕尔 Michael Paré
      Leanne Khol Young
      Patrick J. MacEachern
      Cameron Gordon
      Scott Roberts
      Anna Barker

◎简  介

  None

  1. Video
  2. ID                                       : 1
  3. Format                                   : AVC
  4. Format/Info                              : Advanced Video Codec
  5. Format profile                           : [url=/cdn-cgi/l/email-protection][email protected][/url]
  6. Format settings                          : CABAC / 4 Ref Frames
  7. Format settings, CABAC                   : Yes
  8. Format settings, RefFrames               : 4 frames
  9. Codec ID                                 : V_MPEG4/ISO/AVC
  10. Duration                                 : 1 h 27 min
  11. Bit rate                                 : 8 218 kb/s
  12. Width                                    : 1 920 pixels
  13. Height                                   : 1 080 pixels
  14. Display aspect ratio                     : 16:9
  15. Frame rate mode                          : Constant
  16. Frame rate                               : 23.976 (24000/1001) FPS
  17. Color space                              : YUV
  18. Chroma subsampling                       : 4:2:0
  19. Bit depth                                : 8 bits
  20. Scan type                                : Progressive
  21. Bits/(Pixel*Frame)                       : 0.165
  22. Stream size                              : 5.00 GiB (91%)
  23. Writing library                          : x264 core 155 r2901 7d0ff22
  24. Encoding settings                        : cabac=1 / ref=4 / deblock=1:0:0 / analyse=0x3:0x133 / me=umh / subme=7 / psy=1 / psy_rd=1.00:0.00 / mixed_ref=1 / me_range=16 / chroma_me=1 / trellis=2 / 8x8dct=1 / cqm=0 / deadzone=21,11 / fast_pskip=0 / chroma_qp_offset=-2 / threads=12 / lookahead_threads=2 / sliced_threads=0 / nr=0 / decimate=1 / interlaced=0 / bluray_compat=0 / constrained_intra=0 / bframes=3 / b_pyramid=2 / b_adapt=1 / b_bias=0 / direct=3 / weightb=1 / open_gop=0 / weightp=2 / keyint=250 / keyint_min=23 / scenecut=40 / intra_refresh=0 / rc_lookahead=50 / rc=2pass / mbtree=1 / bitrate=8218 / ratetol=1.0 / qcomp=0.60 / qpmin=0 / qpmax=69 / qpstep=4 / cplxblur=20.0 / qblur=0.5 / ip_ratio=1.40 / aq=1:1.00
  25. Language                                 : English
  26. Default                                  : Yes
  27. Forced                                   : No

  28. Audio
  29. ID                                       : 2
  30. Format                                   : DTS
  31. Format/Info                              : Digital Theater Systems
  32. Mode                                     : 16
  33. Format settings, Endianness              : Big
  34. Codec ID                                 : A_DTS
  35. Duration                                 : 1 h 27 min
  36. Bit rate mode                            : Constant
  37. Bit rate                                 : 768 kb/s
  38. Channel(s)                               : 6 channels
  39. Channel positions                        : Front: L C R, Side: L R, LFE
  40. Sampling rate                            : 48.0 kHz
  41. Frame rate                               : 93.750 FPS (512 SPF)
  42. Bit depth                                : 24 bits
  43. Compression mode                         : Lossy
  44. Stream size                              : 478 MiB (9%)
  45. Title                                    : DTS
  46. Language                                 : English
  47. Default                                  : Yes
  48. Forced                                   : No

  49. Menu
  50. 00:00:00.000                             : en:00:00:00.000
  51. 00:02:09.296                             : en:00:02:09.296
  52. 00:06:43.153                             : en:00:06:43.153
  53. 00:11:57.717                             : en:00:11:57.717
  54. 00:21:19.236                             : en:00:21:19.236
  55. 00:27:56.258                             : en:00:27:56.258
  56. 00:32:32.826                             : en:00:32:32.826
  57. 00:43:11.088                             : en:00:43:11.088
  58. 00:53:58.193                             : en:00:53:58.193
  59. 01:04:23.735                             : en:01:04:23.735
  60. 01:14:38.182                             : en:01:14:38.182
  61. 01:22:59.850                             : en:01:22:59.850
复制代码

复制代码

全球解体 Global.Meltdown.2017.1080p.BluRay.x264-GETiT 5.47GB-2.jpg






回复

使用道具 举报

蓝光币
262
发表于 2018-9-12 13:57:48 | 显示全部楼层
感谢楼主分享~~~
回复 支持 反对

使用道具 举报

懒得打字嘛,点击右侧快捷回复 【右侧内容,后台自定义】
您需要登录后才可以回帖 登录 | 立即加入

本版积分规则

Archiver|小黑屋| 蓝光电影网 |网站地图

Copyright © 2021 Comsenz Inc. Powered by 蓝光电影网

蓝光电影网

本站内容由用户自主分享和转载自互联网,转载目的在于传递更多信息,并不代表本网赞同其观点和对其真实性负责。

如有侵权、违反国家法律政策行为,请联系我们,我们会第一时间及时清除和处理!

举报反馈邮箱:[email protected]

快速回复 返回顶部 返回列表