找回密码

蓝光电影网

查看: 1401|回复: 3

[剧情] 回来的路/亡命千万里 The.Way.Back.2010.1080p.Bluray.x264-CBGB 9.84GB

[复制链接]
蓝光币
623
发表于 2018-9-12 10:38:44 | 显示全部楼层 |阅读模式

返来的路/亡命万万里 The.Way.Back.2010.1080p.Bluray.x264-CBGB 9.84GB-1.jpg
◎译  名 返来的路/亡命万万里(台)/自在之路/归途/回家的路/回去的路
◎片  名 The Way Back
◎年  代 2010
◎产  地 美国
◎类  别 剧情/冒险
◎语  言 英语/波兰语 Polish/俄语
◎上映日期 2010-09-03(特柳赖德电影节)/2011-01-21(美国)
◎豆瓣评分 7.9/10 from 12,373 users
◎豆瓣链接 https://movie.douban.com/subject/3259973/
◎片  长 133分钟
◎导  演 彼得·威尔 Peter Weir
◎主  演 吉姆·斯特吉斯 Jim Sturgess
      艾德·哈里斯 Ed Harris
      西尔莎·罗南 Saoirse Ronan
      柯林·法瑞尔 Colin Farrell
      德拉戈斯·布库尔 Dragos Bucur
      亚力山德鲁·波托西恩 Alexandru Potocean
      马克·斯特朗 1 Mark Strong

◎简  介

  1939年苏德朋分波兰后未几,波兰青年维斯切克?乔努斯(吉姆?斯特吉斯 Jim Sturgess )因其所谓的“反党反斯大林”特务行为,被送入了西伯利亚的劳动营。当时已是1940年,在严寒的西伯利亚,乔努斯结识了同为政治犯的演员安德烈,后者有一项酝酿多时的逃窜计划,美国老人史姑娘(艾德?哈里斯 Ed Harris 饰)、罪犯沃尔卡(柯林?法瑞尔 Colin Farrell 饰)等人连续加入了他们的小圈子,在一个大雪之夜,乔努斯等七人成功逃出劳动营,他们唯一晓得的,是向南前往贝加尔湖,同时躲避无处不在的告发者。一路上有人难耐卑劣的天气死去,在将要到达贝加尔湖时,一个奥秘少女伊莲娜(西尔莎?罗南 Saoirse Ronan 饰)加入了他们,她的加入,令一行人预备穿过蒙古、西藏,翻越喜马拉雅到达英控印度寻觅自在的旅程又平增了多少困难……

◎获奖情况

  第83届奥斯卡金像奖  (2011)
  最好化装(提名) 爱德华·F.·恩里克斯 / Greg Funk / 约兰达·塔辛

  1. Video
  2. ID                                       : 1
  3. Format                                   : AVC
  4. Format/Info                              : Advanced Video Codec
  5. Format profile                           : [url=/cdn-cgi/l/email-protection][email protected][/url]
  6. Format settings                          : CABAC / 5 Ref Frames
  7. Format settings, CABAC                   : Yes
  8. Format settings, ReFrames                : 5 frames
  9. Muxing mode                              : Header stripping
  10. Codec ID                                 : V_MPEG4/ISO/AVC
  11. Duration                                 : 2 h 13 min
  12. Bit rate                                 : 9 067 kb/s
  13. Width                                    : 1 920 pixels
  14. Height                                   : 816 pixels
  15. Display aspect ratio                     : 2.35:1
  16. Frame rate mode                          : Constant
  17. Frame rate                               : 23.976 (24000/1001) FPS
  18. Color space                              : YUV
  19. Chroma subsampling                       : 4:2:0
  20. Bit depth                                : 8 bits
  21. Scan type                                : Progressive
  22. Bits/(Pixel*Frame)                       : 0.241
  23. Stream size                              : 8.24 GiB (84%)
  24. Writing library                          : x264 core 114 r1924 08d04a4
  25. Encoding settings                        : cabac=1 / ref=5 / deblock=1:0:0 / analyse=0x3:0x113 / me=umh / subme=7 / psy=1 / psy_rd=1.00:0.20 / mixed_ref=1 / me_range=16 / chroma_me=1 / trellis=1 / 8x8dct=1 / cqm=0 / deadzone=21,11 / fast_pskip=1 / chroma_qp_offset=-3 / threads=12 / sliced_threads=0 / nr=0 / decimate=1 / interlaced=0 / constrained_intra=0 / bframes=3 / b_pyramid=2 / b_adapt=1 / b_bias=0 / direct=3 / weightb=1 / open_gop=0 / weightp=2 / keyint=250 / keyint_min=23 / scenecut=40 / intra_refresh=0 / rc_lookahead=40 / rc=2pass / mbtree=1 / bitrate=9067 / ratetol=1.0 / qcomp=0.60 / qpmin=0 / qpmax=69 / qpstep=4 / cplxblur=20.0 / qblur=0.5 / ip_ratio=1.40 / aq=1:1.00
  26. Language                                 : English
  27. Default                                  : Yes
  28. Forced                                   : No

  29. Audio
  30. ID                                       : 2
  31. Format                                   : DTS
  32. Format/Info                              : Digital Theater Systems
  33. Muxing mode                              : Header stripping
  34. Codec ID                                 : A_DTS
  35. Duration                                 : 2 h 13 min
  36. Bit rate mode                            : Constant
  37. Bit rate                                 : 1 509 kb/s
  38. Channel(s)                               : 6 channels
  39. Channel positions                        : Front: L C R, Side: L R, LFE
  40. Sampling rate                            : 48.0 kHz
  41. Frame rate                               : 93.750 FPS (512 SPF)
  42. Bit depth                                : 24 bits
  43. Compression mode                         : Lossy
  44. Stream size                              : 1.40 GiB (14%)
  45. Language                                 : English
  46. Default                                  : Yes
  47. Forced                                   : No

  48. Menu
  49. 00:00:00.000                             : en:00:00:00.000
  50. 00:02:14.968                             : en:00:02:14.968
  51. 00:12:47.475                             : en:00:12:47.475
  52. 00:22:49.326                             : en:00:22:49.326
  53. 00:33:29.382                             : en:00:33:29.382
  54. 00:45:12.376                             : en:00:45:12.376
  55. 00:55:41.672                             : en:00:55:41.672
  56. 01:07:05.772                             : en:01:07:05.772
  57. 01:16:34.006                             : en:01:16:34.006
  58. 01:29:37.455                             : en:01:29:37.455
  59. 01:39:41.142                             : en:01:39:41.142
  60. 01:48:29.294                             : en:01:48:29.294
  61. 01:56:42.454                             : en:01:56:42.454
  62. 02:06:01.929                             : en:02:06:01.929
复制代码

复制代码

返来的路/亡命万万里 The.Way.Back.2010.1080p.Bluray.x264-CBGB 9.84GB-2.png 返来的路/亡命万万里 The.Way.Back.2010.1080p.Bluray.x264-CBGB 9.84GB-3.png 返来的路/亡命万万里 The.Way.Back.2010.1080p.Bluray.x264-CBGB 9.84GB-4.png






回复

使用道具 举报

蓝光币
1129
发表于 2018-9-30 11:20:35 | 显示全部楼层
感谢楼主无私奉献
回复 支持 反对

使用道具 举报

懒得打字嘛,点击右侧快捷回复 【右侧内容,后台自定义】
您需要登录后才可以回帖 登录 | 立即加入

本版积分规则

Archiver|小黑屋| 蓝光电影网 |网站地图

Copyright © 2021 Comsenz Inc. Powered by 蓝光电影网

蓝光电影网

本站内容由用户自主分享和转载自互联网,转载目的在于传递更多信息,并不代表本网赞同其观点和对其真实性负责。

如有侵权、违反国家法律政策行为,请联系我们,我们会第一时间及时清除和处理!

举报反馈邮箱:[email protected]

快速回复 返回顶部 返回列表