找回密码

蓝光电影网

查看: 1935|回复: 2

[动作] 绝命反击/败者为王 The.Losers.2010.1080p.Bluray.x264-CBGB 6.56GB

[复制链接]
蓝光币
623
发表于 2018-9-12 10:39:55 | 显示全部楼层 |阅读模式

绝命还击/败者为王 The.Losers.2010.1080p.Bluray.x264-CBGB 6.56GB-1.jpg
◎译  名 绝命还击/败者为王/失利者/衰仔帮
◎片  名 The Losers
◎年  代 2010
◎产  地 美国
◎类  别 行动/冒险/犯罪/悬疑/惊悚
◎语  言 英语
◎上映日期 2010-04-23
◎豆瓣评分 6.4/10 from 9,294 users
◎豆瓣链接 https://movie.douban.com/subject/2027933/
◎片  长 97 分钟
◎导  演 Sylvain White
◎主  演 杰弗里·迪恩·摩根 Jeffrey Dean Morgan
      佐伊·索尔达娜 Zoe Saldana
      克里斯·埃文斯 Chris Evans
      杰森·帕特里克 Jason Patric
      伊德瑞斯·艾尔巴 Idris Elba
      哥伦布·绍特 Columbus Short
      奥斯卡·贾恩那达 óscar Jaenada

◎简  介

  有一个受聘于美国政府的机密构造,成员包括领甲士物克莱(杰弗里·迪恩·摩根 Jeffrey Dean Morgan 饰)、放荡不羁的简森(克里斯·埃文斯 Chris Evans 饰)、兵器专家罗克(伊德瑞斯·艾尔巴 Idris Elba 饰)以及普奇(哥伦布·绍特Columbus Short 饰)、酷格(奥斯卡·贾恩那达 óscar Jaenada 饰)等人。他们在玻利维亚履利用命时,因内鬼麦克斯(杰森·帕特里克 Jason Patric 饰)的出售,让每小我的生命都覆盖在灭亡威胁里。克莱将计就计,捏造了大师的灭亡,更名“失利者”奥秘潜回美国。此时,一位叫做爱莎(佐伊·索尔达娜 Zoe Saldana 饰)的奥秘女郎也加入失利者构造,与克莱一行人起头复仇。克莱一行人能否顺遂的抓出内鬼,重新找回庄严呢?关键之处的奥秘,实在全系于功夫高强的爱莎一身……

◎获奖情况

  第12届美国青少年挑选奖  (2010)
  最好行动冒险电影(提名)
  最好行动冒险电影女演员(提名) 佐伊·索尔达娜

  1. Video
  2. ID                                       : 1
  3. Format                                   : AVC
  4. Format/Info                              : Advanced Video Codec
  5. Format profile                           : [url=/cdn-cgi/l/email-protection][email protected][/url]
  6. Format settings                          : CABAC / 5 Ref Frames
  7. Format settings, CABAC                   : Yes
  8. Format settings, ReFrames                : 5 frames
  9. Codec ID                                 : V_MPEG4/ISO/AVC
  10. Duration                                 : 1 h 37 min
  11. Bit rate                                 : 8 177 kb/s
  12. Width                                    : 1 920 pixels
  13. Height                                   : 800 pixels
  14. Display aspect ratio                     : 2.40:1
  15. Frame rate mode                          : Constant
  16. Frame rate                               : 23.976 (24000/1001) FPS
  17. Color space                              : YUV
  18. Chroma subsampling                       : 4:2:0
  19. Bit depth                                : 8 bits
  20. Scan type                                : Progressive
  21. Bits/(Pixel*Frame)                       : 0.222
  22. Stream size                              : 5.41 GiB (82%)
  23. Writing library                          : x264 core 100 r1659 57b2e56
  24. Encoding settings                        : cabac=1 / ref=5 / deblock=1:0:0 / analyse=0x3:0x113 / me=umh / subme=8 / psy=1 / psy_rd=1.00:0.20 / mixed_ref=1 / me_range=16 / chroma_me=1 / trellis=1 / 8x8dct=1 / cqm=0 / deadzone=21,11 / fast_pskip=1 / chroma_qp_offset=-3 / threads=12 / sliced_threads=0 / nr=0 / decimate=1 / interlaced=0 / constrained_intra=0 / bframes=3 / b_pyramid=2 / b_adapt=1 / b_bias=0 / direct=3 / weightb=1 / open_gop=0 / weightp=0 / keyint=250 / keyint_min=25 / scenecut=40 / intra_refresh=0 / rc_lookahead=40 / rc=2pass / mbtree=1 / bitrate=8177 / ratetol=1.0 / qcomp=0.60 / qpmin=10 / qpmax=51 / qpstep=4 / cplxblur=20.0 / qblur=0.5 / ip_ratio=1.40 / aq=1:1.00
  25. Language                                 : English
  26. Default                                  : Yes
  27. Forced                                   : No

  28. Audio
  29. ID                                       : 2
  30. Format                                   : DTS
  31. Format/Info                              : Digital Theater Systems
  32. Muxing mode                              : Header stripping
  33. Codec ID                                 : A_DTS
  34. Duration                                 : 1 h 37 min
  35. Bit rate mode                            : Constant
  36. Bit rate                                 : 1 509 kb/s
  37. Channel(s)                               : 6 channels
  38. Channel positions                        : Front: L C R, Side: L R, LFE
  39. Sampling rate                            : 48.0 kHz
  40. Frame rate                               : 93.750 FPS (512 SPF)
  41. Bit depth                                : 24 bits
  42. Compression mode                         : Lossy
  43. Stream size                              : 1.02 GiB (16%)
  44. Language                                 : English
  45. Default                                  : Yes
  46. Forced                                   : No

  47. Text
  48. ID                                       : 3
  49. Format                                   : UTF-8
  50. Codec ID                                 : S_TEXT/UTF8
  51. Codec ID/Info                            : UTF-8 Plain Text
  52. Language                                 : English
  53. Default                                  : Yes
  54. Forced                                   : No

  55. Menu
  56. 00:00:00.000                             : en:00:00:00.000
  57. 00:06:17.085                             : en:00:06:17.085
  58. 00:10:47.355                             : en:00:10:47.355
  59. 00:14:59.023                             : en:00:14:59.023
  60. 00:20:54.879                             : en:00:20:54.879
  61. 00:25:52.468                             : en:00:25:52.468
  62. 00:31:21.546                             : en:00:31:21.546
  63. 00:40:18.249                             : en:00:40:18.249
  64. 00:46:43.134                             : en:00:46:43.134
  65. 00:54:42.988                             : en:00:54:42.988
  66. 00:59:43.205                             : en:00:59:43.205
  67. 01:05:21.126                             : en:01:05:21.126
  68. 01:12:58.583                             : en:01:12:58.583
  69. 01:18:33.959                             : en:01:18:33.959
  70. 01:26:28.725                             : en:01:26:28.725
  71. 01:29:41.876                             : en:01:29:41.876
复制代码

复制代码

绝命还击/败者为王 The.Losers.2010.1080p.Bluray.x264-CBGB 6.56GB-2.png 绝命还击/败者为王 The.Losers.2010.1080p.Bluray.x264-CBGB 6.56GB-3.png 绝命还击/败者为王 The.Losers.2010.1080p.Bluray.x264-CBGB 6.56GB-4.png






回复

使用道具 举报

懒得打字嘛,点击右侧快捷回复 【右侧内容,后台自定义】
您需要登录后才可以回帖 登录 | 立即加入

本版积分规则

Archiver|小黑屋| 蓝光电影网 |网站地图

Copyright © 2021 Comsenz Inc. Powered by 蓝光电影网

蓝光电影网

本站内容由用户自主分享和转载自互联网,转载目的在于传递更多信息,并不代表本网赞同其观点和对其真实性负责。

如有侵权、违反国家法律政策行为,请联系我们,我们会第一时间及时清除和处理!

举报反馈邮箱:[email protected]

快速回复 返回顶部 返回列表