找回密码

蓝光电影网

查看: 4738|回复: 3

[犯罪] 美国人/完美狙击 The.American.2010.1080p.Bluray.x264-CBGB 7.94GB

[复制链接]
蓝光币
682
发表于 2018-9-12 10:40:16 | 显示全部楼层 |阅读模式

美国人/完善狙击 The.American.2010.1080p.Bluray.x264-CBGB 7.94GB-1.jpg
◎译  名 美国人/完善狙击(台)/他来自美国(港)/美国百姓/美国佬/美国刺客/一位很是低调的名流
◎片  名 The American
◎年  代 2010
◎产  地 美国
◎类  别 犯罪/剧情/惊悚
◎语  言 英语/意大利语
◎上映日期 2010-09-01
◎豆瓣评分 6.5/10 from 11,263 users
◎豆瓣链接 https://movie.douban.com/subject/3744561/
◎片  长 USA: 105 分钟
◎导  演 安东·寇班 Anton Corbijn
◎主  演 乔治·克鲁尼 George Clooney
      维奥兰特·普拉奇多 Violante Placido
      斯科拉·鲁特 Thekla Reuten
      保罗·博纳切利 Paolo Bonacelli
      布鲁斯·奥尔特曼 Bruce Altman
      伊丽娜·别尔克伦德 Irina Bj?rklund
      萨穆利·瓦拉莫 Samuli Vauramo

◎简  介

  挺拔独行、技术高明的杀手杰克(乔治·克鲁尼 George Clooney饰)来到意大利乡下的一座故乡小镇,筹算履行完此次使命后金盆洗手——为女杀手组装一支公用步枪。在这相对简单安静的情况里,原本低调谨慎的杰克出乎料想的与当地居民建立了深厚的友谊。不但如此,他还相逢了美丽的妓女克莱拉(薇奥兰特·普拉西多 Violante Placido饰),一段浪漫的恋爱由此展开。但是,这杀手生活中的最初一次使命,却远没有设想中的简单。
  本片按照马丁·布斯的小说《一位很是低调的名流》改编而成。

  1. Video
  2. ID                                       : 1
  3. Format                                   : AVC
  4. Format/Info                              : Advanced Video Codec
  5. Format profile                           : [url=/cdn-cgi/l/email-protection][email protected][/url]
  6. Format settings                          : CABAC / 5 Ref Frames
  7. Format settings, CABAC                   : Yes
  8. Format settings, ReFrames                : 5 frames
  9. Codec ID                                 : V_MPEG4/ISO/AVC
  10. Duration                                 : 1 h 44 min
  11. Bit rate                                 : 9 325 kb/s
  12. Width                                    : 1 920 pixels
  13. Height                                   : 816 pixels
  14. Display aspect ratio                     : 2.35:1
  15. Frame rate mode                          : Constant
  16. Frame rate                               : 23.976 (24000/1001) FPS
  17. Color space                              : YUV
  18. Chroma subsampling                       : 4:2:0
  19. Bit depth                                : 8 bits
  20. Scan type                                : Progressive
  21. Bits/(Pixel*Frame)                       : 0.248
  22. Stream size                              : 6.68 GiB (84%)
  23. Writing library                          : x264 core 110 r1820 fdcf2ae
  24. Encoding settings                        : cabac=1 / ref=5 / deblock=1:0:0 / analyse=0x3:0x113 / me=umh / subme=8 / psy=1 / psy_rd=1.00:0.20 / mixed_ref=1 / me_range=16 / chroma_me=1 / trellis=1 / 8x8dct=1 / cqm=0 / deadzone=21,11 / fast_pskip=1 / chroma_qp_offset=-3 / threads=12 / sliced_threads=0 / nr=0 / decimate=1 / interlaced=0 / constrained_intra=0 / bframes=3 / b_pyramid=2 / b_adapt=1 / b_bias=0 / direct=3 / weightb=1 / open_gop=0 / weightp=2 / keyint=250 / keyint_min=23 / scenecut=40 / intra_refresh=0 / rc_lookahead=40 / rc=2pass / mbtree=1 / bitrate=9325 / ratetol=1.0 / qcomp=0.60 / qpmin=0 / qpmax=51 / qpstep=4 / cplxblur=20.0 / qblur=0.5 / ip_ratio=1.40 / aq=1:1.00
  25. Language                                 : English
  26. Default                                  : Yes
  27. Forced                                   : No

  28. Audio
  29. ID                                       : 2
  30. Format                                   : DTS
  31. Format/Info                              : Digital Theater Systems
  32. Codec ID                                 : A_DTS
  33. Duration                                 : 1 h 44 min
  34. Bit rate mode                            : Constant
  35. Bit rate                                 : 1 509 kb/s
  36. Channel(s)                               : 6 channels
  37. Channel positions                        : Front: L C R, Side: L R, LFE
  38. Sampling rate                            : 48.0 kHz
  39. Frame rate                               : 93.750 FPS (512 SPF)
  40. Bit depth                                : 24 bits
  41. Compression mode                         : Lossy
  42. Stream size                              : 1.11 GiB (14%)
  43. Language                                 : English
  44. Default                                  : Yes
  45. Forced                                   : No

  46. Menu
  47. 00:00:00.000                             : en:Chapter 1
  48. 00:05:03.470                             : en:Chapter 2
  49. 00:09:41.372                             : en:Chapter 3
  50. 00:15:02.360                             : en:Chapter 4
  51. 00:19:25.831                             : en:Chapter 5
  52. 00:24:21.835                             : en:Chapter 6
  53. 00:29:22.719                             : en:Chapter 7
  54. 00:33:35.472                             : en:Chapter 8
  55. 00:36:22.639                             : en:Chapter 9
  56. 00:41:25.274                             : en:Chapter 10
  57. 00:45:28.434                             : en:Chapter 11
  58. 00:49:15.911                             : en:Chapter 12
  59. 00:53:34.545                             : en:Chapter 13
  60. 00:59:08.170                             : en:Chapter 14
  61. 01:06:55.553                             : en:Chapter 15
  62. 01:13:44.045                             : en:Chapter 16
复制代码

复制代码

美国人/完善狙击 The.American.2010.1080p.Bluray.x264-CBGB 7.94GB-2.png 美国人/完善狙击 The.American.2010.1080p.Bluray.x264-CBGB 7.94GB-3.png 美国人/完善狙击 The.American.2010.1080p.Bluray.x264-CBGB 7.94GB-4.png






回复

使用道具 举报

蓝光币
262
发表于 2018-9-12 13:56:41 | 显示全部楼层
感谢楼主分享~~~
回复 支持 反对

使用道具 举报

蓝光币
336
发表于 2019-7-12 08:05:44 | 显示全部楼层
楼主发贴辛苦了,谢谢楼主分享!我觉得蓝光电影网是注册对了!
回复 支持 反对

使用道具 举报

蓝光币
172
发表于 2021-9-19 12:58:17 | 显示全部楼层
低调奢华的开枪
回复 支持 反对

使用道具 举报

懒得打字嘛,点击右侧快捷回复 【右侧内容,后台自定义】
您需要登录后才可以回帖 登录 | 立即加入

本版积分规则

Archiver|小黑屋| 蓝光电影网 |网站地图

Copyright © 2021 Comsenz Inc. Powered by 蓝光电影网

蓝光电影网

本站内容由用户自主分享和转载自互联网,转载目的在于传递更多信息,并不代表本网赞同其观点和对其真实性负责。

如有侵权、违反国家法律政策行为,请联系我们,我们会第一时间及时清除和处理!

举报反馈邮箱:[email protected]

快速回复 返回顶部 返回列表