找回密码

蓝光电影网

查看: 1811|回复: 2

[喜剧] 蔓延/情圣终结者 Spread.2009.1080p.BluRay.x264.DTS-FGT 9.40GB

[复制链接]
蓝光币
623
发表于 2018-9-12 10:41:08 | 显示全部楼层 |阅读模式

舒展/情圣终结者 Spread.2009.1080p.BluRay.x264.DTS-FGT 9.40GB-1.jpg
◎译  名 舒展/情圣终结者
◎片  名 Spread
◎年  代 2009
◎产  地 美国
◎类  别 笑剧/剧情/恋爱
◎语  言 英语
◎上映日期 2009-01-17
◎豆瓣评分 6.3/10 from 4,186 users
◎豆瓣链接 https://movie.douban.com/subject/3011044/
◎片  长 97 分钟/USA: 97 分钟(Sundance Film Festival)
◎导  演 大卫·马肯兹 David Mackenzie
◎主  演 阿什顿·库彻 Ashton Kutcher
      安·海切 Anne Heche
      塞巴斯蒂安·斯坦 Sebastian Stan
      玛格丽塔·列维耶娃 Margarita Levieva
      索尼娅·洛克威尔 Sonia Rockwell

◎简  介

  情场浪子尼基(Ashton Kutcher 饰)来到猎艳天堂洛杉矶,意欲在这里找到供养他的女性,很快,支出颇丰的女律师萨曼莎(Anne Heche 饰)进入了他的视野,尼基凭仗英俊的边幅、魁梧的身段以及久经锤炼的花巧手段,很快俘获了萨曼莎的心,得以入住她的豪宅纵情吃苦。尼根基可度过一段波涛不惊的逸乐生活,可是他与餐厅办事生海瑟(Margarita Levieva 饰)的相遇,促使尼基对自己的生活发生了思疑,终极致使萨曼莎将其赶落发门,一无所长的尼基堕入困窘,海瑟成为了他最初的希望,但糟糕的是,海瑟实在和他一样也是将生活的前途依靠在同性身上的情场猎人。在和海瑟的相处中,尼基不成救药的爱上了对方,在声色犬马的大都会中,一无一切的年轻人还能获得心中的真爱么?

  1. Video
  2. ID                                       : 1
  3. Format                                   : AVC
  4. Format/Info                              : Advanced Video Codec
  5. Format profile                           : [url=/cdn-cgi/l/email-protection][email protected][/url]
  6. Format settings                          : CABAC / 5 Ref Frames
  7. Format settings, CABAC                   : Yes
  8. Format settings, ReFrames                : 5 frames
  9. Codec ID                                 : V_MPEG4/ISO/AVC
  10. Duration                                 : 1 h 37 min
  11. Bit rate                                 : 12.4 Mb/s
  12. Width                                    : 1 920 pixels
  13. Height                                   : 800 pixels
  14. Display aspect ratio                     : 2.40:1
  15. Frame rate mode                          : Constant
  16. Frame rate                               : 23.976 FPS
  17. Color space                              : YUV
  18. Chroma subsampling                       : 4:2:0
  19. Bit depth                                : 8 bits
  20. Scan type                                : Progressive
  21. Bits/(Pixel*Frame)                       : 0.335
  22. Stream size                              : 8.19 GiB (87%)
  23. Title                                    : Spread.aka.Toy.Boy.2009.1080p.BluRay.x264.DTS-FGT
  24. Writing library                          : x264 core 77 r1292 e381f6d
  25. Encoding settings                        : cabac=1 / ref=5 / deblock=1:-3:-3 / analyse=0x3:0x113 / me=umh / subme=10 / psy=1 / psy_rd=1.0:0.0 / mixed_ref=1 / me_range=32 / chroma_me=1 / trellis=2 / 8x8dct=1 / cqm=0 / deadzone=21,11 / chroma_qp_offset=-2 / threads=6 / nr=0 / decimate=0 / mbaff=0 / constrained_intra=0 / bframes=9 / b_pyramid=1 / b_adapt=2 / b_bias=0 / direct=3 / wpredb=1 / keyint=250 / keyint_min=25 / scenecut=40 / rc=2pass / mbtree=0 / bitrate=12352 / ratetol=1.0 / qcomp=0.60 / qpmin=10 / qpmax=51 / qpstep=4 / cplxblur=20.0 / qblur=0.5 / ip_ratio=1.40 / pb_ratio=1.30 / aq=1:0.80
  26. Language                                 : English
  27. Default                                  : No
  28. Forced                                   : No

  29. Audio
  30. ID                                       : 2
  31. Format                                   : DTS
  32. Format/Info                              : Digital Theater Systems
  33. Codec ID                                 : A_DTS
  34. Duration                                 : 1 h 37 min
  35. Bit rate mode                            : Constant
  36. Bit rate                                 : 1 509 kb/s
  37. Channel(s)                               : 6 channels
  38. Channel positions                        : Front: L C R, Side: L R, LFE
  39. Sampling rate                            : 48.0 kHz
  40. Frame rate                               : 93.750 FPS (512 SPF)
  41. Bit depth                                : 16 bits
  42. Compression mode                         : Lossy
  43. Stream size                              : 1.02 GiB (11%)
  44. Title                                    : Spread.aka.Toy.Boy.2009.1080p.BluRay.x264.DTS-FGT
  45. Language                                 : English
  46. Default                                  : Yes
  47. Forced                                   : No

  48. Text
  49. ID                                       : 3
  50. Format                                   : UTF-8
  51. Codec ID                                 : S_TEXT/UTF8
  52. Codec ID/Info                            : UTF-8 Plain Text
  53. Language                                 : English
  54. Default                                  : Yes
  55. Forced                                   : No
复制代码

复制代码

舒展/情圣终结者 Spread.2009.1080p.BluRay.x264.DTS-FGT 9.40GB-2.png 舒展/情圣终结者 Spread.2009.1080p.BluRay.x264.DTS-FGT 9.40GB-3.png 舒展/情圣终结者 Spread.2009.1080p.BluRay.x264.DTS-FGT 9.40GB-4.png






回复

使用道具 举报

懒得打字嘛,点击右侧快捷回复 【右侧内容,后台自定义】
您需要登录后才可以回帖 登录 | 立即加入

本版积分规则

Archiver|小黑屋| 蓝光电影网 |网站地图

Copyright © 2021 Comsenz Inc. Powered by 蓝光电影网

蓝光电影网

本站内容由用户自主分享和转载自互联网,转载目的在于传递更多信息,并不代表本网赞同其观点和对其真实性负责。

如有侵权、违反国家法律政策行为,请联系我们,我们会第一时间及时清除和处理!

举报反馈邮箱:[email protected]

快速回复 返回顶部 返回列表