找回密码

蓝光电影网

查看: 913|回复: 1

[喜剧] 前女友们的幽灵/旧爱找麻烦 Ghosts.of.Girlfriends.Past.2009.1080p.BluRay.x264-CBGB 7.96GB

[复制链接]
蓝光币
623
发表于 2018-9-12 10:42:48 | 显示全部楼层 |阅读模式

前女友们的鬼魂/旧爱找麻烦 Ghosts.of.Girlfriends.Past.2009.1080p.BluRay.x264-CBGB 7.96GB-1.jpg
◎译  名 前女友们的鬼魂/旧爱找麻烦
◎片  名 Ghosts of Girlfriends Past
◎年  代 2009
◎产  地 美国
◎类  别 笑剧/奇异/恋爱
◎语  言 英语
◎上映日期 2009-05-01
◎豆瓣评分 6.0/10 from 9,214 users
◎豆瓣链接 https://movie.douban.com/subject/3006775/
◎片  长 USA: 100 分钟
◎导  演 马克·沃特斯 Mark Waters
◎主  演 马修·麦康纳 Matthew McConaughey
      詹妮弗·加纳 Jennifer Garner
      迈克尔·道格拉斯 Michael Douglas
      艾玛·斯通 Emma Stone
      布瑞金·梅耶 Breckin Meyer
      莱西·沙伯特 Lacey Chabert

◎简  介

  英俊帅气的康纳?米德(马修?麦康利 Matthew McConaughey 饰)是一位奇迹有成且艳遇不竭的著名摄影师,崇尚自在的他游走各色美男之间,却历来不准下任何许诺。直到意兴衰退之时,“挥一挥衣袖,不带走一片云彩”。潇洒至极,乐在其中。与游戏人世的哥哥分歧,康纳的弟弟保罗(Breckin Meyer 饰)则行将走入婚姻的殿堂。康纳重要前往加入婚礼,固然对他来说,这也许又是别的一段(大概几段?)艳遇的起头。但是,工作的成长却出乎他的料想,他先是在洗手间碰见早已归天的叔叔(迈克?道格拉斯 Michael Douglas 饰),接着又遭受三名前女友的鬼魂。她们率领康纳回溯自己这些年来的“浪漫史”,在这一进程中,康纳也发现自己丢失且忘怀了很久的工具……

  1. Video
  2. ID                                       : 1
  3. Format                                   : AVC
  4. Format/Info                              : Advanced Video Codec
  5. Format profile                           : [url=/cdn-cgi/l/email-protection][email protected][/url]
  6. Format settings                          : CABAC / 5 Ref Frames
  7. Format settings, CABAC                   : Yes
  8. Format settings, ReFrames                : 5 frames
  9. Codec ID                                 : V_MPEG4/ISO/AVC
  10. Duration                                 : 1 h 40 min
  11. Bit rate                                 : 10.7 Mb/s
  12. Width                                    : 1 920 pixels
  13. Height                                   : 800 pixels
  14. Display aspect ratio                     : 2.40:1
  15. Frame rate mode                          : Constant
  16. Frame rate                               : 23.976 FPS
  17. Color space                              : YUV
  18. Chroma subsampling                       : 4:2:0
  19. Bit depth                                : 8 bits
  20. Scan type                                : Progressive
  21. Bits/(Pixel*Frame)                       : 0.290
  22. Stream size                              : 7.35 GiB (92%)
  23. Writing library                          : x264 core 72 r1222 d0ee6f8
  24. Encoding settings                        : cabac=1 / ref=5 / deblock=1:0:0 / analyse=0x3:0x2 / me=umh / subme=7 / psy=1 / psy_rd=1.0:0.0 / mixed_ref=1 / me_range=16 / chroma_me=1 / trellis=1 / 8x8dct=1 / cqm=0 / deadzone=21,11 / chroma_qp_offset=-2 / threads=6 / nr=0 / decimate=1 / mbaff=0 / bframes=3 / b_pyramid=0 / b_adapt=1 / b_bias=0 / direct=3 / wpredb=1 / keyint=24 / keyint_min=1 / scenecut=40 / rc_lookahead=24 / rc=2pass / mbtree=1 / bitrate=10681 / ratetol=1.0 / qcomp=0.60 / qpmin=10 / qpmax=51 / qpstep=4 / cplxblur=20.0 / qblur=0.5 / ip_ratio=1.40 / aq=1:1.00
  25. Language                                 : English
  26. Default                                  : Yes
  27. Forced                                   : No

  28. Audio
  29. ID                                       : 2
  30. Format                                   : AC-3
  31. Format/Info                              : Audio Coding 3
  32. Codec ID                                 : A_AC3
  33. Duration                                 : 1 h 40 min
  34. Bit rate mode                            : Constant
  35. Bit rate                                 : 640 kb/s
  36. Channel(s)                               : 6 channels
  37. Channel positions                        : Front: L C R, Side: L R, LFE
  38. Sampling rate                            : 48.0 kHz
  39. Frame rate                               : 31.250 FPS (1536 SPF)
  40. Bit depth                                : 16 bits
  41. Compression mode                         : Lossy
  42. Stream size                              : 461 MiB (6%)
  43. Language                                 : English
  44. Service kind                             : Complete Main
  45. Default                                  : Yes
  46. Forced                                   : No

  47. Text
  48. ID                                       : 3
  49. Format                                   : UTF-8
  50. Codec ID                                 : S_TEXT/UTF8
  51. Codec ID/Info                            : UTF-8 Plain Text
  52. Language                                 : English
  53. Default                                  : No
  54. Forced                                   : No

  55. Menu
  56. 00:00:00.000                             : en:00:00:00.000
  57. 00:03:10.649                             : en:00:03:10.649
  58. 00:06:08.618                             : en:00:06:08.618
  59. 00:11:16.968                             : en:00:11:16.968
  60. 00:13:22.802                             : en:00:13:22.802
  61. 00:17:59.287                             : en:00:17:59.287
  62. 00:20:40.823                             : en:00:20:40.823
  63. 00:23:44.548                             : en:00:23:44.548
  64. 00:27:41.535                             : en:00:27:41.535
  65. 00:29:39.695                             : en:00:29:39.695
  66. 00:32:39.082                             : en:00:32:39.082
  67. 00:37:10.520                             : en:00:37:10.520
  68. 00:42:08.484                             : en:00:42:08.484
  69. 00:47:41.233                             : en:00:47:41.233
  70. 00:50:27.942                             : en:00:50:27.942
  71. 00:53:29.748                             : en:00:53:29.748
  72. 00:59:18.722                             : en:00:59:18.722
  73. 01:02:25.659                             : en:01:02:25.659
  74. 01:06:59.265                             : en:01:06:59.265
  75. 01:11:32.747                             : en:01:11:32.747
  76. 01:14:07.234                             : en:01:14:07.234
  77. 01:17:44.577                             : en:01:17:44.577
  78. 01:20:36.206                             : en:01:20:36.206
  79. 01:26:07.662                             : en:01:26:07.662
  80. 01:29:56.474                             : en:01:29:56.474
  81. 01:34:46.014                             : en:01:34:46.014
复制代码

复制代码

前女友们的鬼魂/旧爱找麻烦 Ghosts.of.Girlfriends.Past.2009.1080p.BluRay.x264-CBGB 7.96GB-2.png 前女友们的鬼魂/旧爱找麻烦 Ghosts.of.Girlfriends.Past.2009.1080p.BluRay.x264-CBGB 7.96GB-3.png 前女友们的鬼魂/旧爱找麻烦 Ghosts.of.Girlfriends.Past.2009.1080p.BluRay.x264-CBGB 7.96GB-4.png






回复

使用道具 举报

懒得打字嘛,点击右侧快捷回复 【右侧内容,后台自定义】
您需要登录后才可以回帖 登录 | 立即加入

本版积分规则

Archiver|小黑屋| 蓝光电影网 |网站地图

Copyright © 2021 Comsenz Inc. Powered by 蓝光电影网

蓝光电影网

本站内容由用户自主分享和转载自互联网,转载目的在于传递更多信息,并不代表本网赞同其观点和对其真实性负责。

如有侵权、违反国家法律政策行为,请联系我们,我们会第一时间及时清除和处理!

举报反馈邮箱:[email protected]

快速回复 返回顶部 返回列表