找回密码

蓝光电影网

查看: 895|回复: 1

[动作] 超级苍蝇 SuperFly.2018.1080p.BluRay.x264.DTS-HD.MA.5.1-FGT 9.49GB

[复制链接]
蓝光币
623
发表于 2018-9-12 10:47:45 | 显示全部楼层 |阅读模式


◎译  名 超级苍蝇
◎片  名 SuperFly
◎年  代 2018
◎产  地 美国
◎类  别 行动/犯罪/惊悚
◎语  言 英语
◎上映日期 2018-06-13(美国)
◎豆瓣评分 4.8/10 from 79 users
◎豆瓣链接 https://movie.douban.com/subject/27610991/
◎片  长 116分钟
◎导  演 X导演 Director X.
◎主  演 詹妮弗·莫里森 Jennifer Morrison
      特雷沃·杰克逊 Trevor Jackson
      迈克尔·肯尼斯·威廉姆斯 Michael Kenneth Williams
      埃塞·莫拉雷斯 Esai Morales
      杰森·米切尔 Jason Mitchell
      Lex Scott Davis
      安德莉亚·隆多 Andrea Londo
      阿伦·马尔多纳多 Allen Maldonado
      Adriyan Rae
      特雷勒·希尔 Terayle Hill
      Aundrea Smith
      Dawntavia Bullard
      大冯波 Big Boi
      玛丽亚·Z·威尔逊 Maria Z. Wilson
      Stephanie Garner
      Jacob Ming-Trent
      Al-Jaleel Knox
      L. Warren Young
      大卫·邓斯顿 David Dunston
      布莱恩·杜尔金 Brian F. Durkin
      迈克尔·比斯利 Michael Beasley
      Atkins Estimond
      Aparna Singh
      Ruben Vidal
      Kaalan Walker
      Dominique Madison
      Ryan J. Lewis
      Brian Kayode-Patrick Johnson
      Jared Losano
      Mehmet Korhan
      Ahmed Lucan
      里克·佩雷斯 Rick Perez
      Amy Stormant
      Ivan Leung
      Big Bank Black
      Kevin Young
      Chel Brickhouse
      Jamil Khan
      David Huegin
      Orlando Avila
      Krystle Darosa
      Trinity Moriah Jones
      Khyeer Hughes
      Richie Acevedo
      佩拉·米德尔顿 Perla Middleton

◎简  介

  一个可卡因估客意想到他的生活行将终结,要末是进牢狱,要末灭亡,因而决议策划最大的一笔买卖,弄完就逃离这类生活,但是大势让他不能脱身。

  1. Video
  2. ID                                       : 1
  3. Format                                   : AVC
  4. Format/Info                              : Advanced Video Codec
  5. Format profile                           : [url=/cdn-cgi/l/email-protection][email protected][/url]
  6. Format settings                          : CABAC / 4 Ref Frames
  7. Format settings, CABAC                   : Yes
  8. Format settings, ReFrames                : 4 frames
  9. Codec ID                                 : V_MPEG4/ISO/AVC
  10. Duration                                 : 1 h 56 min
  11. Bit rate                                 : 9 260 kb/s
  12. Width                                    : 1 920 pixels
  13. Height                                   : 1 040 pixels
  14. Display aspect ratio                     : 1.85:1
  15. Frame rate mode                          : Constant
  16. Frame rate                               : 23.976 (24000/1001) FPS
  17. Color space                              : YUV
  18. Chroma subsampling                       : 4:2:0
  19. Bit depth                                : 8 bits
  20. Scan type                                : Progressive
  21. Bits/(Pixel*Frame)                       : 0.193
  22. Stream size                              : 7.51 GiB (79%)
  23. Title                                    : SuperFly.2018.1080p.BluRay.x264.DTS-HD.MA.5.1-FGT
  24. Writing library                          : x264 core 155 r2901 7d0ff22
  25. Encoding settings                        : cabac=1 / ref=4 / deblock=1:0:0 / analyse=0x3:0x113 / me=umh / subme=8 / psy=1 / psy_rd=1.00:0.00 / mixed_ref=1 / me_range=16 / chroma_me=1 / trellis=1 / 8x8dct=1 / cqm=0 / deadzone=21,11 / fast_pskip=1 / chroma_qp_offset=-2 / threads=24 / lookahead_threads=4 / sliced_threads=0 / nr=0 / decimate=1 / interlaced=0 / bluray_compat=0 / constrained_intra=0 / bframes=3 / b_pyramid=2 / b_adapt=1 / b_bias=0 / direct=3 / weightb=1 / open_gop=0 / weightp=2 / keyint=240 / keyint_min=24 / scenecut=40 / intra_refresh=0 / rc_lookahead=50 / rc=2pass / mbtree=1 / bitrate=9260 / ratetol=1.0 / qcomp=0.60 / qpmin=0 / qpmax=69 / qpstep=4 / cplxblur=20.0 / qblur=0.5 / ip_ratio=1.40 / aq=1:1.00
  26. Language                                 : English
  27. Default                                  : Yes
  28. Forced                                   : No

  29. Audio
  30. ID                                       : 2
  31. Format                                   : DTS
  32. Format/Info                              : Digital Theater Systems
  33. Format profile                           : MA / Core
  34. Codec ID                                 : A_DTS
  35. Duration                                 : 1 h 56 min
  36. Bit rate mode                            : Variable / Constant
  37. Bit rate                                 : 2 237 kb/s / 1 509 kb/s
  38. Channel(s)                               : 6 channels
  39. Channel positions                        : Front: L C R, Side: L R, LFE
  40. Sampling rate                            : 48.0 kHz
  41. Frame rate                               : 93.750 FPS (512 SPF)
  42. Bit depth                                : 16 bits
  43. Compression mode                         : Lossless / Lossy
  44. Stream size                              : 1.82 GiB (19%)
  45. Title                                    : SuperFly.2018.1080p.BluRay.x264.DTS-HD.MA.5.1-FGT
  46. Language                                 : English
  47. Default                                  : Yes
  48. Forced                                   : No

  49. Text #1
  50. ID                                       : 3
  51. Format                                   : UTF-8
  52. Codec ID                                 : S_TEXT/UTF8
  53. Codec ID/Info                            : UTF-8 Plain Text
  54. Duration                                 : 50 min 45 s
  55. Bit rate                                 : 1 b/s
  56. Count of elements                        : 19
  57. Stream size                              : 740 Bytes (0%)
  58. Title                                    : English-FORCED-SRT
  59. Language                                 : English
  60. Default                                  : Yes
  61. Forced                                   : Yes

  62. Text #2
  63. ID                                       : 4
  64. Format                                   : UTF-8
  65. Codec ID                                 : S_TEXT/UTF8
  66. Codec ID/Info                            : UTF-8 Plain Text
  67. Duration                                 : 1 h 47 min
  68. Bit rate                                 : 64 b/s
  69. Count of elements                        : 1562
  70. Stream size                              : 50.9 KiB (0%)
  71. Title                                    : English-SRT
  72. Language                                 : English
  73. Default                                  : No
  74. Forced                                   : No

  75. Text #3
  76. ID                                       : 5
  77. Format                                   : PGS
  78. Muxing mode                              : zlib
  79. Codec ID                                 : S_HDMV/PGS
  80. Codec ID/Info                            : Picture based subtitle format used on BDs/HD-DVDs
  81. Duration                                 : 1 h 56 min
  82. Bit rate                                 : 61.4 kb/s
  83. Count of elements                        : 4143
  84. Stream size                              : 50.9 MiB (1%)
  85. Title                                    : English-PGS
  86. Language                                 : English
  87. Default                                  : No
  88. Forced                                   : No

  89. Text #4
  90. ID                                       : 6
  91. Format                                   : PGS
  92. Muxing mode                              : zlib
  93. Codec ID                                 : S_HDMV/PGS
  94. Codec ID/Info                            : Picture based subtitle format used on BDs/HD-DVDs
  95. Duration                                 : 1 h 47 min
  96. Bit rate                                 : 48.7 kb/s
  97. Count of elements                        : 3124
  98. Stream size                              : 37.5 MiB (0%)
  99. Title                                    : English-PGS
  100. Language                                 : English
  101. Default                                  : No
  102. Forced                                   : No

  103. Text #5
  104. ID                                       : 7
  105. Format                                   : PGS
  106. Muxing mode                              : zlib
  107. Codec ID                                 : S_HDMV/PGS
  108. Codec ID/Info                            : Picture based subtitle format used on BDs/HD-DVDs
  109. Duration                                 : 50 min 45 s
  110. Bit rate                                 : 1 462 b/s
  111. Count of elements                        : 38
  112. Stream size                              : 544 KiB (0%)
  113. Title                                    : English-PGS
  114. Language                                 : English
  115. Default                                  : No
  116. Forced                                   : No

  117. Text #6
  118. ID                                       : 8
  119. Format                                   : PGS
  120. Muxing mode                              : zlib
  121. Codec ID                                 : S_HDMV/PGS
  122. Codec ID/Info                            : Picture based subtitle format used on BDs/HD-DVDs
  123. Duration                                 : 1 h 54 min
  124. Bit rate                                 : 32.1 kb/s
  125. Count of elements                        : 3194
  126. Stream size                              : 26.4 MiB (0%)
  127. Title                                    : Chinese-PGS
  128. Language                                 : Chinese
  129. Default                                  : No
  130. Forced                                   : No

  131. Text #7
  132. ID                                       : 9
  133. Format                                   : PGS
  134. Muxing mode                              : zlib
  135. Codec ID                                 : S_HDMV/PGS
  136. Codec ID/Info                            : Picture based subtitle format used on BDs/HD-DVDs
  137. Duration                                 : 1 h 54 min
  138. Bit rate                                 : 31.5 kb/s
  139. Count of elements                        : 3192
  140. Stream size                              : 25.8 MiB (0%)
  141. Title                                    : Chinese-PGS
  142. Language                                 : Chinese
  143. Default                                  : No
  144. Forced                                   : No

  145. Text #8
  146. ID                                       : 10
  147. Format                                   : PGS
  148. Muxing mode                              : zlib
  149. Codec ID                                 : S_HDMV/PGS
  150. Codec ID/Info                            : Picture based subtitle format used on BDs/HD-DVDs
  151. Duration                                 : 1 h 54 min
  152. Bit rate                                 : 40.1 kb/s
  153. Count of elements                        : 3164
  154. Stream size                              : 32.9 MiB (0%)
  155. Title                                    : French-PGS
  156. Language                                 : French
  157. Default                                  : No
  158. Forced                                   : No

  159. Text #9
  160. ID                                       : 11
  161. Format                                   : PGS
  162. Muxing mode                              : zlib
  163. Codec ID                                 : S_HDMV/PGS
  164. Codec ID/Info                            : Picture based subtitle format used on BDs/HD-DVDs
  165. Duration                                 : 1 h 54 min
  166. Bit rate                                 : 29.9 kb/s
  167. Count of elements                        : 3049
  168. Stream size                              : 24.6 MiB (0%)
  169. Title                                    : Korean-PGS
  170. Language                                 : Korean
  171. Default                                  : No
  172. Forced                                   : No

  173. Text #10
  174. ID                                       : 12
  175. Format                                   : PGS
  176. Muxing mode                              : zlib
  177. Codec ID                                 : S_HDMV/PGS
  178. Codec ID/Info                            : Picture based subtitle format used on BDs/HD-DVDs
  179. Duration                                 : 1 h 54 min
  180. Bit rate                                 : 44.9 kb/s
  181. Count of elements                        : 3170
  182. Stream size                              : 36.8 MiB (0%)
  183. Title                                    : Portuguese-PGS
  184. Language                                 : Portuguese
  185. Default                                  : No
  186. Forced                                   : No

  187. Text #11
  188. ID                                       : 13
  189. Format                                   : PGS
  190. Muxing mode                              : zlib
  191. Codec ID                                 : S_HDMV/PGS
  192. Codec ID/Info                            : Picture based subtitle format used on BDs/HD-DVDs
  193. Duration                                 : 1 h 54 min
  194. Bit rate                                 : 37.0 kb/s
  195. Count of elements                        : 2452
  196. Stream size                              : 30.4 MiB (0%)
  197. Title                                    : Spanish-PGS
  198. Language                                 : Spanish
  199. Default                                  : No
  200. Forced                                   : No

  201. Text #12
  202. ID                                       : 14
  203. Format                                   : PGS
  204. Muxing mode                              : zlib
  205. Codec ID                                 : S_HDMV/PGS
  206. Codec ID/Info                            : Picture based subtitle format used on BDs/HD-DVDs
  207. Duration                                 : 1 h 54 min
  208. Bit rate                                 : 37.6 kb/s
  209. Count of elements                        : 3194
  210. Stream size                              : 30.9 MiB (0%)
  211. Title                                    : Thai-PGS
  212. Language                                 : Thai
  213. Default                                  : No
  214. Forced                                   : No

  215. Menu
  216. 00:00:00.000                             : en:00:00:00.000
  217. 00:05:54.312                             : en:00:05:54.312
  218. 00:14:24.322                             : en:00:14:24.322
  219. 00:21:11.604                             : en:00:21:11.604
  220. 00:28:39.968                             : en:00:28:39.968
  221. 00:35:25.915                             : en:00:35:25.915
  222. 00:40:37.894                             : en:00:40:37.894
  223. 00:47:54.121                             : en:00:47:54.121
  224. 00:54:24.511                             : en:00:54:24.511
  225. 01:00:06.228                             : en:01:00:06.228
  226. 01:08:10.837                             : en:01:08:10.837
  227. 01:16:01.432                             : en:01:16:01.432
  228. 01:22:30.571                             : en:01:22:30.571
  229. 01:32:03.560                             : en:01:32:03.560
  230. 01:38:19.977                             : en:01:38:19.977
  231. 01:47:35.616                             : en:01:47:35.616
复制代码

复制代码









回复

使用道具 举报

懒得打字嘛,点击右侧快捷回复 【右侧内容,后台自定义】
您需要登录后才可以回帖 登录 | 立即加入

本版积分规则

Archiver|小黑屋| 蓝光电影网 |网站地图

Copyright © 2021 Comsenz Inc. Powered by 蓝光电影网

蓝光电影网

本站内容由用户自主分享和转载自互联网,转载目的在于传递更多信息,并不代表本网赞同其观点和对其真实性负责。

如有侵权、违反国家法律政策行为,请联系我们,我们会第一时间及时清除和处理!

举报反馈邮箱:[email protected]

快速回复 返回顶部 返回列表