找回密码

蓝光电影网

查看: 624|回复: 1

[剧情] 信使/亡情使者 The.Messenger.2009.LIMITED.1080p.Bluray.x264-CBGB 7.94GB

[复制链接]
蓝光币
623
发表于 2018-9-12 10:48:32 | 显示全部楼层 |阅读模式

信使/亡情使者 The.Messenger.2009.LIMITED.1080p.Bluray.x264-CBGB 7.94GB-1.jpg
◎译  名 信使/亡情使者/天堂信差/代信人
◎片  名 The Messenger
◎年  代 2009
◎产  地 美国
◎类  别 剧情/恋爱/战争
◎语  言 英语/西班牙语
◎上映日期 2009-10-30
◎豆瓣评分 7.4/10 from 3,989 users
◎豆瓣链接 https://movie.douban.com/subject/3011082/
◎片  长 113 分钟/Germany: 105 分钟(Berlin International Film Festival)
◎导  演 欧伦·穆弗曼 Oren Moverman
◎主  演 本·福斯特 Ben Foster
      伍迪·哈里森 Woody Harrelson
      吉娜·马隆 Jena Malone
      萨曼莎·莫顿 Samantha Morton
      伊默恩·沃克 Eamonn Walker

◎简  介

  士官威尔·蒙哥马利(本·福斯特 Ben Foster 饰)刚完成在伊拉克的驻守使命负伤返国,虽然出院后与女友凯莉(吉娜·马隆 Jena Malone 饰)度过了愉快的一天,二人终究分手。由于役期未满,威尔被派遣到了“伤亡告诉”办事中心,在上尉托尼·斯通(伍迪·哈里森 Woody Harrelson 饰)手下任职。在履行伤亡告诉使命的进程中,威尔与托尼碰到了各类状态,包括被情感冲动的支属殴打唾骂。在向奥利维娅·皮特森(萨曼莎·莫顿Samantha Morton 饰)转达她丈夫的死讯时,威尔担忧顽强表面下孤儿寡母的奥利维娅没法承受,事后屡次照顾帮助她母子,二人逐步发生好感。但托尼却对威尔处处违反“伤亡告诉行为守则”的做法不满,在一次抵触事后,二人终究说出了心里久长压制着的深切伤痛。
  本片被提名奥斯卡最好男配角(伍迪·哈里森)和最好原创剧本奖,获金球奖最好男配角提名(伍迪·哈里森),并获柏林电影节战争电影奖、最好剧本银熊奖,及最好影片金熊奖提名。

◎获奖情况

  第82届奥斯卡金像奖  (2010)
  最好男配角(提名) 伍迪·哈里森
  最好原创剧本(提名) 亚历山卓·卡蒙 / 欧伦·穆弗曼

  第59届柏林国际电影节  (2009)
  金熊奖 最好影片(提名) 欧伦·穆弗曼
  银熊奖 最好剧本 亚历山卓·卡蒙 / 欧伦·穆弗曼

  第67届金球奖  (2010)
  电影类 最好男配角(提名) 伍迪·哈里森

  第10届美国电影学会奖  (2009)
  年度佳片

  第8届华盛顿影评人协会奖  (2009)
  最好男配角(提名) 伍迪·哈里森
  最好女配角(提名) 萨曼莎·莫顿

  第14届圣地亚哥影评人协会奖  (2009)
  年度劳模 伍迪·哈里森
  最好男配角(提名) 本·福斯特
  最好女配角 萨曼莎·莫顿
  最好男配角(提名) 伍迪·哈里森

  第22届芝加哥影评人协会奖  (2009)
  最好男配角(提名) 伍迪·哈里森

  第18届东南影评人协会奖  (2009)
  最好男配角(提名) 伍迪·哈里森

  1. Video
  2. ID                                       : 1
  3. Format                                   : AVC
  4. Format/Info                              : Advanced Video Codec
  5. Format profile                           : [url=/cdn-cgi/l/email-protection][email protected][/url]
  6. Format settings                          : CABAC / 5 Ref Frames
  7. Format settings, CABAC                   : Yes
  8. Format settings, ReFrames                : 5 frames
  9. Codec ID                                 : V_MPEG4/ISO/AVC
  10. Duration                                 : 1 h 52 min
  11. Bit rate                                 : 8 565 kb/s
  12. Width                                    : 1 920 pixels
  13. Height                                   : 816 pixels
  14. Display aspect ratio                     : 2.35:1
  15. Frame rate mode                          : Constant
  16. Frame rate                               : 23.976 (24000/1001) FPS
  17. Color space                              : YUV
  18. Chroma subsampling                       : 4:2:0
  19. Bit depth                                : 8 bits
  20. Scan type                                : Progressive
  21. Bits/(Pixel*Frame)                       : 0.228
  22. Stream size                              : 6.59 GiB (83%)
  23. Writing library                          : x264 core 94 r1570 d9db8b3
  24. Encoding settings                        : cabac=1 / ref=5 / deblock=1:0:0 / analyse=0x3:0x113 / me=umh / subme=7 / psy=1 / psy_rd=1.00:0.20 / mixed_ref=1 / me_range=16 / chroma_me=1 / trellis=1 / 8x8dct=1 / cqm=0 / deadzone=21,11 / fast_pskip=1 / chroma_qp_offset=-3 / threads=6 / sliced_threads=0 / nr=0 / decimate=1 / interlaced=0 / constrained_intra=0 / bframes=3 / b_pyramid=2 / b_adapt=1 / b_bias=0 / direct=3 / wpredb=1 / wpredp=0 / keyint=250 / keyint_min=25 / scenecut=40 / intra_refresh=0 / rc_lookahead=40 / rc=2pass / mbtree=1 / bitrate=8565 / ratetol=1.0 / qcomp=0.60 / qpmin=10 / qpmax=51 / qpstep=4 / cplxblur=20.0 / qblur=0.5 / ip_ratio=1.40 / aq=1:1.00
  25. Language                                 : English
  26. Default                                  : Yes
  27. Forced                                   : No

  28. Audio
  29. ID                                       : 2
  30. Format                                   : DTS
  31. Format/Info                              : Digital Theater Systems
  32. Codec ID                                 : A_DTS
  33. Duration                                 : 1 h 52 min
  34. Bit rate mode                            : Constant
  35. Bit rate                                 : 1 509 kb/s
  36. Channel(s)                               : 6 channels
  37. Channel positions                        : Front: L C R, Side: L R, LFE
  38. Sampling rate                            : 48.0 kHz
  39. Frame rate                               : 93.750 FPS (512 SPF)
  40. Bit depth                                : 24 bits
  41. Compression mode                         : Lossy
  42. Stream size                              : 1.19 GiB (15%)
  43. Language                                 : English
  44. Default                                  : Yes
  45. Forced                                   : No

  46. Text
  47. ID                                       : 3
  48. Format                                   : UTF-8
  49. Codec ID                                 : S_TEXT/UTF8
  50. Codec ID/Info                            : UTF-8 Plain Text
  51. Language                                 : English
  52. Default                                  : No
  53. Forced                                   : No

  54. Menu
  55. 00:00:00.000                             : en:00:00:00.000
  56. 00:05:24.616                             : en:00:05:24.616
  57. 00:12:00.136                             : en:00:12:00.136
  58. 00:18:46.792                             : en:00:18:46.792
  59. 00:25:29.903                             : en:00:25:29.903
  60. 00:33:54.074                             : en:00:33:54.074
  61. 00:39:13.226                             : en:00:39:13.226
  62. 00:42:32.091                             : en:00:42:32.091
  63. 00:47:31.432                             : en:00:47:31.432
  64. 00:54:47.451                             : en:00:54:47.451
  65. 00:59:16.094                             : en:00:59:16.094
  66. 01:04:25.278                             : en:01:04:25.278
  67. 01:12:41.899                             : en:01:12:41.899
  68. 01:18:24.199                             : en:01:18:24.199
  69. 01:24:28.522                             : en:01:24:28.522
  70. 01:33:47.288                             : en:01:33:47.288
  71. 01:43:41.006                             : en:01:43:41.006
  72. 01:47:10.007                             : en:01:47:10.007
复制代码

复制代码

信使/亡情使者 The.Messenger.2009.LIMITED.1080p.Bluray.x264-CBGB 7.94GB-2.png 信使/亡情使者 The.Messenger.2009.LIMITED.1080p.Bluray.x264-CBGB 7.94GB-3.png 信使/亡情使者 The.Messenger.2009.LIMITED.1080p.Bluray.x264-CBGB 7.94GB-4.png







回复

使用道具 举报

懒得打字嘛,点击右侧快捷回复 【右侧内容,后台自定义】
您需要登录后才可以回帖 登录 | 立即加入

本版积分规则

Archiver|小黑屋| 蓝光电影网 |网站地图

Copyright © 2021 Comsenz Inc. Powered by 蓝光电影网

蓝光电影网

本站内容由用户自主分享和转载自互联网,转载目的在于传递更多信息,并不代表本网赞同其观点和对其真实性负责。

如有侵权、违反国家法律政策行为,请联系我们,我们会第一时间及时清除和处理!

举报反馈邮箱:[email protected]

快速回复 返回顶部 返回列表