找回密码

蓝光电影网

查看: 661|回复: 1

[剧情] 跨越8年的新娘/跨越八年的新娘 The.8-Year.Engagement.2017.1080p.BluRay.x264-REGRET 7.66GB

[复制链接]
蓝光币
623
发表于 2018-9-12 10:48:53 | 显示全部楼层 |阅读模式

跨越8年的新娘/跨越八年的新娘 The.8-Year.Engagement.2017.1080p.BluRay.x264-REGRET 7.66GB-1.jpg
◎译  名 跨越8年的新娘/跨越八年的新娘
◎片  名 8年越しの花嫁
◎年  代 2017
◎产  地 日本
◎类  别 剧情/恋爱
◎语  言 日语
◎上映日期 2017-12-16(日本)/2018-10(中国大陆)
◎豆瓣评分 6.8/10 from 1,428 users
◎豆瓣链接 https://movie.douban.com/subject/26929835/
◎片  长 119分钟
◎导  演 濑濑敬久 Takahisa Zeze
◎主  演 佐藤健 Takeru Sat?
      土屋太凤 Tao Tsuchiya
      北村一辉 Kazuki Kitamura
      浜野谦太 Kenta Hamano
      中村友理 Yuri Nakamura
      堀部圭亮 Keisuke Horibe
      古馆宽治 Kanji Furutachi
      杉本哲太 Tetta Sugimoto
      药师丸博子 Hiroko Yakushimaru

◎简  介

  在某修车行工作的西泽尚志(佐藤健 饰)看起来像个寡然无味的年轻人,他和其他男生加入了一次联谊,鬼使神差和联谊会上的女孩华夏麻衣(土屋太凤 饰)熟稔。麻衣快人快语,开畅阳光,僧人志构成了完善的互补。在接下来的一段时候,两人越走越近,尚志终究兴起勇气向麻衣求婚,一切看似美好。可是毫无征象,麻衣身上出现了各类希奇的症状。经诊断发现,她罹得了非常辣手的疑问杂症——抗NMDA受体脑炎。终极,麻衣堕入久长的昏迷,饱受熬煎。女孩的遭受令她的怙恃伤痛欲绝,而尚志则不离不弃,始终苦守在女友身旁,期待他醒来那一天。终究,麻衣张开了紧闭多年的双眼,可是更多的考验还等在前面……
  本片按照实在事务改编。

◎获奖情况

  第41届日本电影学院奖  (2018)
  最好男配角(提名) 佐藤健
  最好女配角(提名) 土屋太凤
  最好女配角(提名) 药师丸博子
  最好配乐(提名) 村松崇继

  1. Video
  2. ID                                       : 1
  3. Format                                   : AVC
  4. Format/Info                              : Advanced Video Codec
  5. Format profile                           : [url=/cdn-cgi/l/email-protection][email protected][/url]
  6. Format settings                          : CABAC / 4 Ref Frames
  7. Format settings, CABAC                   : Yes
  8. Format settings, RefFrames               : 4 frames
  9. Codec ID                                 : V_MPEG4/ISO/AVC
  10. Duration                                 : 1 h 59 min
  11. Bit rate                                 : 8 523 kb/s
  12. Width                                    : 1 920 pixels
  13. Height                                   : 1 040 pixels
  14. Display aspect ratio                     : 1.85:1
  15. Frame rate mode                          : Constant
  16. Frame rate                               : 24.000 FPS
  17. Color space                              : YUV
  18. Chroma subsampling                       : 4:2:0
  19. Bit depth                                : 8 bits
  20. Scan type                                : Progressive
  21. Bits/(Pixel*Frame)                       : 0.178
  22. Stream size                              : 7.12 GiB (93%)
  23. Writing library                          : x264 core 155 r2901 7d0ff22
  24. Encoding settings                        : cabac=1 / ref=4 / deblock=1:-3:-3 / analyse=0x3:0x133 / me=umh / subme=9 / psy=1 / psy_rd=1.00:0.00 / mixed_ref=1 / me_range=16 / chroma_me=1 / trellis=2 / 8x8dct=1 / cqm=0 / deadzone=21,11 / fast_pskip=0 / chroma_qp_offset=-2 / threads=24 / lookahead_threads=2 / sliced_threads=0 / nr=0 / decimate=1 / interlaced=0 / bluray_compat=0 / constrained_intra=0 / bframes=3 / b_pyramid=2 / b_adapt=1 / b_bias=0 / direct=3 / weightb=1 / open_gop=0 / weightp=2 / keyint=240 / keyint_min=24 / scenecut=40 / intra_refresh=0 / rc_lookahead=50 / rc=2pass / mbtree=1 / bitrate=8523 / ratetol=1.0 / qcomp=0.60 / qpmin=0 / qpmax=69 / qpstep=4 / cplxblur=20.0 / qblur=0.5 / ip_ratio=1.40 / aq=1:1.00
  25. Language                                 : English
  26. Default                                  : Yes
  27. Forced                                   : No

  28. Audio
  29. ID                                       : 2
  30. Format                                   : AC-3
  31. Format/Info                              : Audio Coding 3
  32. Format settings, Endianness              : Big
  33. Codec ID                                 : A_AC3
  34. Duration                                 : 1 h 59 min
  35. Bit rate mode                            : Constant
  36. Bit rate                                 : 640 kb/s
  37. Channel(s)                               : 6 channels
  38. Channel positions                        : Front: L C R, Side: L R, LFE
  39. Sampling rate                            : 48.0 kHz
  40. Frame rate                               : 31.250 FPS (1536 SPF)
  41. Bit depth                                : 16 bits
  42. Compression mode                         : Lossy
  43. Stream size                              : 547 MiB (7%)
  44. Language                                 : Japanese
  45. Service kind                             : Complete Main
  46. Default                                  : Yes
  47. Forced                                   : No

  48. Text
  49. ID                                       : 3
  50. Format                                   : UTF-8
  51. Codec ID                                 : S_TEXT/UTF8
  52. Codec ID/Info                            : UTF-8 Plain Text
  53. Duration                                 : 1 h 58 min
  54. Bit rate                                 : 20 b/s
  55. Count of elements                        : 959
  56. Stream size                              : 18.0 KiB (0%)
  57. Title                                    : English
  58. Language                                 : English
  59. Default                                  : Yes
  60. Forced                                   : Yes

  61. Menu
  62. 00:00:00.000                             : en:00:00:00.000
  63. 00:04:29.167                             : en:00:04:29.167
  64. 00:10:19.667                             : en:00:10:19.667
  65. 00:15:12.000                             : en:00:15:12.000
  66. 00:21:59.083                             : en:00:21:59.083
  67. 00:28:28.833                             : en:00:28:28.833
  68. 00:38:23.833                             : en:00:38:23.833
  69. 00:43:54.125                             : en:00:43:54.125
  70. 00:48:06.000                             : en:00:48:06.000
  71. 00:53:11.750                             : en:00:53:11.750
  72. 00:58:50.458                             : en:00:58:50.458
  73. 01:06:08.458                             : en:01:06:08.458
  74. 01:12:23.792                             : en:01:12:23.792
  75. 01:20:16.000                             : en:01:20:16.000
  76. 01:27:42.000                             : en:01:27:42.000
  77. 01:36:31.250                             : en:01:36:31.250
  78. 01:45:25.625                             : en:01:45:25.625
  79. 01:52:57.000                             : en:01:52:57.000
复制代码

复制代码

跨越8年的新娘/跨越八年的新娘 The.8-Year.Engagement.2017.1080p.BluRay.x264-REGRET 7.66GB-2.jpg







回复

使用道具 举报

懒得打字嘛,点击右侧快捷回复 【右侧内容,后台自定义】
您需要登录后才可以回帖 登录 | 立即加入

本版积分规则

Archiver|小黑屋| 蓝光电影网 |网站地图

Copyright © 2021 Comsenz Inc. Powered by 蓝光电影网

蓝光电影网

本站内容由用户自主分享和转载自互联网,转载目的在于传递更多信息,并不代表本网赞同其观点和对其真实性负责。

如有侵权、违反国家法律政策行为,请联系我们,我们会第一时间及时清除和处理!

举报反馈邮箱:[email protected]

快速回复 返回顶部 返回列表