找回密码

蓝光电影网

查看: 2072|回复: 4

[科幻] 侏罗纪世界2/侏罗纪世界:殒落国度 Jurassic.World.Fallen.Kingdom.2018.1080p.BluRay.x264.DTS-X.7.1-FGT 12.29GB

[复制链接]
蓝光币
623
发表于 2018-9-12 10:51:00 | 显示全部楼层 |阅读模式

侏罗纪天下2/侏罗纪天下:殒落国家 Jurassic.World.Fallen.Kingdom.2018.1080p.BluRay.x264.DTS-X.7.1-FGT 12.29GB-1.jpg
◎译  名 侏罗纪天下2/侏罗纪天下:殒落国家(台)/侏罗纪天下:丢失国家(港)/侏罗纪天下2:失落王国/侏罗纪天下2:出错王国/侏罗纪公园5
◎片  名 Jurassic World: Fallen Kingdom
◎年  代 2018
◎产  地 美国/西班牙
◎类  别 行动/科幻/冒险
◎语  言 英语
◎上映日期 2018-06-15(中国大陆)/2018-06-22(美国)
◎豆瓣评分 6.8/10 from 188,239 users
◎豆瓣链接 https://movie.douban.com/subject/26416062/
◎片  长 128分钟
◎导  演 胡安·安东尼奥·巴亚纳 Juan Antonio Bayona
◎主  演 克里斯·帕拉特 Chris Pratt
      布莱丝·达拉斯·霍华德 Bryce Dallas Howard
      贾斯蒂斯·史姑娘 Justice Smith
      伊莎贝拉·瑟蒙 1394999
      拉菲·斯波 Rafe Spall
      托比·琼斯 Toby Jones
      泰德·拉文 Ted Levine
      詹姆斯·克伦威尔 James Cromwell
      黄荣亮 B.D. Wong
      丹妮艾拉·皮内达 Daniella Pineda
      杰拉丁·卓别林 Geraldine Chaplin
      杰夫·高布伦 Jeff Goldblum
      卡米尔·雷米泽斯基 Kamil Lemieszewski
      丹尼尔·斯蒂森 Daniel Stisen
      皮特·杰森 Peter Jason
      迈克尔·帕帕约翰 Michael Papajohn
      罗伯特·埃姆斯 Robert Emms
      罗南·萨莫尔斯 Ronan Summers
      麦克斯·贝克 Max Baker
      丹尼尔·厄根 Daniel Eghan
      戴维·奥拉瓦莱·阿印德 David Olawale Ayinde

◎简  介

  自侏罗纪天下的骚乱以来,品种繁多的恐龙在努布拉岛度过了三年自在自在的时光。但是该岛火山活动频仍,随时有喷发的危险。努力于恐龙庇护的克莱尔·戴宁(布莱丝·达拉斯·霍华德 Bryce Dallas Howard 饰)遭到班杰明?洛克伍德的约请。班杰明及其部属伊莱·米尔斯(拉菲·斯波 Rafe Spall 饰)希望她和相关技术职员前往努布拉岛拯救那边的恐龙,并将它们安置在新的栖息地。遭到传染的克莱尔想法找来欧文(克里斯·帕拉特 Chris Pratt 饰)一同前往,欧文则希望救出他亲手驯养的迅猛龙小蓝。当他们踏足这座隔断之岛时,却发现工作没那末简单。
  火山捋臂张拳,随时爆发,而紊乱当中丑陋的诡计悄悄酝酿……

  1. Video
  2. ID                                       : 1
  3. Format                                   : AVC
  4. Format/Info                              : Advanced Video Codec
  5. Format profile                           : [url=/cdn-cgi/l/email-protection][email protected][/url]
  6. Format settings                          : CABAC / 5 Ref Frames
  7. Format settings, CABAC                   : Yes
  8. Format settings, ReFrames                : 5 frames
  9. Codec ID                                 : V_MPEG4/ISO/AVC
  10. Duration                                 : 2 h 8 min
  11. Bit rate                                 : 9 468 kb/s
  12. Width                                    : 1 920 pixels
  13. Height                                   : 808 pixels
  14. Display aspect ratio                     : 2.40:1
  15. Frame rate mode                          : Constant
  16. Frame rate                               : 23.976 (24000/1001) FPS
  17. Color space                              : YUV
  18. Chroma subsampling                       : 4:2:0
  19. Bit depth                                : 8 bits
  20. Scan type                                : Progressive
  21. Bits/(Pixel*Frame)                       : 0.255
  22. Stream size                              : 8.48 GiB (69%)
  23. Title                                    : Jurassic.World.Fallen.Kingdom.2018.1080p.BluRay.x264.DTS-HD.MA.7.1-FGT
  24. Writing library                          : x264 core 157 r2932 303c484
  25. Encoding settings                        : cabac=1 / ref=5 / deblock=1:-3:-3 / analyse=0x3:0x113 / me=umh / subme=8 / psy=1 / psy_rd=1.00:0.00 / mixed_ref=1 / me_range=16 / chroma_me=1 / trellis=1 / 8x8dct=1 / cqm=0 / deadzone=21,11 / fast_pskip=1 / chroma_qp_offset=-2 / threads=24 / lookahead_threads=4 / sliced_threads=0 / nr=0 / decimate=1 / interlaced=0 / bluray_compat=0 / constrained_intra=0 / bframes=3 / b_pyramid=2 / b_adapt=1 / b_bias=0 / direct=3 / weightb=1 / open_gop=0 / weightp=2 / keyint=250 / keyint_min=23 / scenecut=40 / intra_refresh=0 / rc_lookahead=50 / rc=2pass / mbtree=1 / bitrate=9468 / ratetol=1.0 / qcomp=0.60 / qpmin=0 / qpmax=69 / qpstep=4 / cplxblur=20.0 / qblur=0.5 / ip_ratio=1.40 / aq=1:1.00
  26. Language                                 : English
  27. Default                                  : Yes
  28. Forced                                   : No

  29. Audio
  30. ID                                       : 2
  31. Format                                   : DTS
  32. Format/Info                              : Digital Theater Systems
  33. Format profile                           : X / MA / Core
  34. Codec ID                                 : A_DTS
  35. Duration                                 : 2 h 8 min
  36. Bit rate mode                            : Variable / Variable / Constant
  37. Bit rate                                 : 4 231 kb/s / 4 231 kb/s / 1 509 kb/s
  38. Channel(s)                               : Object Based / 8 channels / 6 channels
  39. Channel positions                        : Object Based / Front: L C R, Side: L R, Back: L R, LFE / Front: L C R, Side: L R, LFE
  40. Sampling rate                            :  / 48.0 kHz / 48.0 kHz
  41. Frame rate                               : 93.750 FPS (512 SPF)
  42. Bit depth                                :  / 24 bits / 24 bits
  43. Compression mode                         :  / Lossless / Lossy
  44. Stream size                              : 3.79 GiB (31%)
  45. Title                                    : Jurassic.World.Fallen.Kingdom.2018.1080p.BluRay.x264.DTS-HD.MA.7.1-FGT
  46. Language                                 : English
  47. Default                                  : Yes
  48. Forced                                   : No

  49. Text #1
  50. ID                                       : 3
  51. Format                                   : UTF-8
  52. Codec ID                                 : S_TEXT/UTF8
  53. Codec ID/Info                            : UTF-8 Plain Text
  54. Duration                                 : 1 h 55 min
  55. Bit rate                                 : 42 b/s
  56. Count of elements                        : 1198
  57. Stream size                              : 36.2 KiB (0%)
  58. Title                                    : English-SRT
  59. Language                                 : English
  60. Default                                  : Yes
  61. Forced                                   : No

  62. Text #2
  63. ID                                       : 4
  64. Format                                   : PGS
  65. Muxing mode                              : zlib
  66. Codec ID                                 : S_HDMV/PGS
  67. Codec ID/Info                            : Picture based subtitle format used on BDs/HD-DVDs
  68. Duration                                 : 2 h 7 min
  69. Bit rate                                 : 35.3 kb/s
  70. Count of elements                        : 3541
  71. Stream size                              : 32.1 MiB (0%)
  72. Language                                 : English
  73. Default                                  : No
  74. Forced                                   : No
复制代码

复制代码

侏罗纪天下2/侏罗纪天下:殒落国家 Jurassic.World.Fallen.Kingdom.2018.1080p.BluRay.x264.DTS-X.7.1-FGT 12.29GB-2.png 侏罗纪天下2/侏罗纪天下:殒落国家 Jurassic.World.Fallen.Kingdom.2018.1080p.BluRay.x264.DTS-X.7.1-FGT 12.29GB-3.png 侏罗纪天下2/侏罗纪天下:殒落国家 Jurassic.World.Fallen.Kingdom.2018.1080p.BluRay.x264.DTS-X.7.1-FGT 12.29GB-4.png







回复

使用道具 举报

蓝光币
8
发表于 2018-12-8 23:17:46 | 显示全部楼层
电影很棒字幕在哪里呀
回复 支持 反对

使用道具 举报

懒得打字嘛,点击右侧快捷回复 【右侧内容,后台自定义】
您需要登录后才可以回帖 登录 | 立即加入

本版积分规则

Archiver|小黑屋| 蓝光电影网 |网站地图

Copyright © 2021 Comsenz Inc. Powered by 蓝光电影网

蓝光电影网

本站内容由用户自主分享和转载自互联网,转载目的在于传递更多信息,并不代表本网赞同其观点和对其真实性负责。

如有侵权、违反国家法律政策行为,请联系我们,我们会第一时间及时清除和处理!

举报反馈邮箱:[email protected]

快速回复 返回顶部 返回列表