找回密码

蓝光电影网

查看: 863|回复: 1

[科幻] 惹鬼回路/脉搏 Pulse.2006.1080p.BluRay.x264-BRMP 7.94GB

[复制链接]
蓝光币
623
发表于 2018-9-12 10:56:19 | 显示全部楼层 |阅读模式

惹鬼回路/脉搏 Pulse.2006.1080p.BluRay.x264-BRMP 7.94GB-1.jpg
◎译  名 惹鬼回路/脉搏/连锁信/猛鬼宽频
◎片  名 Pulse
◎年  代 2006
◎产  地 美国
◎类  别 科幻/可骇
◎语  言 英语
◎上映日期 2006-08-11
◎豆瓣评分 5.8/10 from 2,181 users
◎豆瓣链接 https://movie.douban.com/subject/1474302/
◎片  长 90 分钟
◎导  演 Jim Sonzero
◎主  演 克里斯汀·贝尔 Kristen Bell
      乔纳森·塔克 Jonathan Tucker
      瑞克·冈萨雷斯 Rick Gonzalez
      伊恩·萨默海尔德 Ian Somerhalder
      克里斯蒂娜·米利安 Christina Milian

◎简  介

  玛蒂(克里斯汀·贝尔 Kristen Bell 饰)和男友乔什的关系比来有些冷淡,她在屡次电话联系无效后造访乔什,但看到的却是男友自杀后的尸身……玛蒂堕入了自责,男友的幻象缭绕在她的眼前。未几,在玛蒂和朋友们利用收集聊天软件时,忽然传来了乔什的立即讯息,玛蒂思疑有人在利用男友的电脑,拜托朋友检察,这致使朋友在乔什家遭受了可骇的履历……另一方面玛蒂追索电脑着落,结识了采办电脑的青年德克斯特,后者在乔什电脑中发现了一系列诡异的视频,乔什在视频记录中自述其应用黑客技术开释出了可骇的物事,而他自己已没法控制。玛蒂在四周人的自杀、变态中愈发体味到一场借助收集传布的可骇阴云正敏捷覆盖全部城市……

  1. Video
  2. ID                                       : 1
  3. Format                                   : AVC
  4. Format/Info                              : Advanced Video Codec
  5. Format profile                           : [url=/cdn-cgi/l/email-protection][email protected][/url]
  6. Format settings                          : CABAC / 4 Ref Frames
  7. Format settings, CABAC                   : Yes
  8. Format settings, ReFrames                : 4 frames
  9. Codec ID                                 : V_MPEG4/ISO/AVC
  10. Duration                                 : 1 h 28 min
  11. Bit rate                                 : 11.3 Mb/s
  12. Width                                    : 1 920 pixels
  13. Height                                   : 1 080 pixels
  14. Display aspect ratio                     : 16:9
  15. Frame rate mode                          : Constant
  16. Frame rate                               : 23.976 (23976/1000) FPS
  17. Color space                              : YUV
  18. Chroma subsampling                       : 4:2:0
  19. Bit depth                                : 8 bits
  20. Scan type                                : Progressive
  21. Bits/(Pixel*Frame)                       : 0.228
  22. Stream size                              : 6.85 GiB (86%)
  23. Writing library                          : x264 core 100 r1659 57b2e56
  24. Encoding settings                        : cabac=1 / ref=4 / deblock=1:0:0 / analyse=0x3:0x133 / me=umh / subme=7 / psy=1 / psy_rd=1.00:0.00 / mixed_ref=1 / me_range=16 / chroma_me=1 / trellis=1 / 8x8dct=1 / cqm=0 / deadzone=21,11 / fast_pskip=0 / chroma_qp_offset=-2 / threads=12 / sliced_threads=0 / nr=0 / decimate=1 / interlaced=0 / constrained_intra=0 / bframes=3 / b_pyramid=2 / b_adapt=1 / b_bias=0 / direct=1 / weightb=1 / open_gop=0 / weightp=2 / keyint=250 / keyint_min=25 / scenecut=40 / intra_refresh=0 / rc_lookahead=40 / rc=2pass / mbtree=1 / bitrate=11346 / ratetol=1.0 / qcomp=0.60 / qpmin=10 / qpmax=51 / qpstep=4 / cplxblur=20.0 / qblur=0.5 / ip_ratio=1.40 / aq=1:1.00
  25. Language                                 : English
  26. Default                                  : No
  27. Forced                                   : No

  28. Audio
  29. ID                                       : 2
  30. Format                                   : DTS
  31. Format/Info                              : Digital Theater Systems
  32. Codec ID                                 : A_DTS
  33. Duration                                 : 1 h 28 min
  34. Bit rate mode                            : Constant
  35. Bit rate                                 : 1 509 kb/s
  36. Channel(s)                               : 6 channels
  37. Channel positions                        : Front: L C R, Side: L R, LFE
  38. Sampling rate                            : 48.0 kHz
  39. Frame rate                               : 93.750 FPS (512 SPF)
  40. Bit depth                                : 24 bits
  41. Compression mode                         : Lossy
  42. Stream size                              : 955 MiB (12%)
  43. Language                                 : English
  44. Default                                  : Yes
  45. Forced                                   : No
复制代码

复制代码

惹鬼回路/脉搏 Pulse.2006.1080p.BluRay.x264-BRMP 7.94GB-2.png 惹鬼回路/脉搏 Pulse.2006.1080p.BluRay.x264-BRMP 7.94GB-3.png 惹鬼回路/脉搏 Pulse.2006.1080p.BluRay.x264-BRMP 7.94GB-4.png





回复

使用道具 举报

懒得打字嘛,点击右侧快捷回复 【右侧内容,后台自定义】
您需要登录后才可以回帖 登录 | 立即加入

本版积分规则

Archiver|小黑屋| 蓝光电影网 |网站地图

Copyright © 2021 Comsenz Inc. Powered by 蓝光电影网

蓝光电影网

本站内容由用户自主分享和转载自互联网,转载目的在于传递更多信息,并不代表本网赞同其观点和对其真实性负责。

如有侵权、违反国家法律政策行为,请联系我们,我们会第一时间及时清除和处理!

举报反馈邮箱:[email protected]

快速回复 返回顶部 返回列表